<?xml version="1.0" standalone="no"?>
<!DOCTYPE svg PUBLIC "-//W3C//DTD SVG 1.1//EN" "http://www.w3.org/Graphics/SVG/1.1/DTD/svg11.dtd" >
<svg xmlns="http://www.w3.org/2000/svg">
<metadata>Created by Icons8</metadata>
<defs>
  <font id="fa-solid-900" horiz-adv-x="1024">
    <font-face font-family="fa-solid-900"
      units-per-em="1024" ascent="896"
      descent="128"
      font-weight="900" />
    <missing-glyph horiz-adv-x="0" />
    <glyph glyph-name="ad"
      unicode="&#xF641;"
      horiz-adv-x="1024" d="M64 672L64 96L960 96L960 672L64 672zM128 608L896 608L896 160L128 160L128 608zM375 544L368 522L289 275L288 270L288 224L352 224L352 256L448 256L448 224L512 224L512 270L511 275L432 522L425 544L375 544zM672 544L672 416L624 416C580.256 416 544 379.7440000000001 544 336L544 304C544 260.256 580.256 224 624 224L736 224L736 544L672 544zM400 411L429 320L371 320L400 411zM624 352L672 352L672 288L624 288C614.88 288 608 294.88 608 304L608 336C608 345.12 614.88 352 624 352z" />
    <glyph glyph-name="address-book"
      unicode="&#xF2B9;"
      horiz-adv-x="1024" d="M192 768L192 608L160 608L160 544L256 544L256 704L768 704L768 64L256 64L256 160L192 160L192 0L832 0L832 768zM512 576C441.624992 576 384 518.375008 384 448C384 412.375008 399.250016 380.2499840000001 423 357C380.375008 328.124992 352 278.875008 352 224L416 224C416 277 459 320 512 320C565 320 608 277 608 224L672 224C672 278.875008 643.624992 328.124992 601 357C624.750016 380.2499840000001 640 412.375008 640 448C640 518.375008 582.375008 576 512 576zM192 512L192 448L160 448L160 384L256 384L256 512zM512 512C547.750016 512 576 483.749984 576 448C576 412.249984 547.750016 384 512 384C476.250016 384 448 412.249984 448 448C448 483.749984 476.250016 512 512 512zM192 352L192 288L160 288L160 224L256 224L256 352z" />
    <glyph glyph-name="address-card"
      unicode="&#xF2BB;"
      horiz-adv-x="1024" d="M96 704L96 64L928 64L928 704zM160 640L864 640L864 128L755 128C752.5 132.375008 753.624992 138.375008 750 142C737.875008 154.124992 720.750016 160 704 160C687.250016 160 670.124992 154.124992 658 142C654.375008 138.375008 655.5 132.375008 653 128L371 128C368.5 132.375008 369.624992 138.375008 366 142C353.875008 154.124992 336.750016 160 320 160C303.250016 160 286.124992 154.124992 274 142C270.375008 138.375008 271.5 132.375008 269 128L160 128zM384 576C313.624992 576 256 518.375008 256 448C256 412.375008 271.250016 380.2499840000001 295 357C252.375008 328.124992 224 278.875008 224 224L288 224C288 277 331 320 384 320C437 320 480 277 480 224L544 224C544 278.875008 515.624992 328.124992 473 357C496.750016 380.2499840000001 512 412.375008 512 448C512 518.375008 454.375008 576 384 576zM384 512C419.750016 512 448 483.749984 448 448C448 412.249984 419.750016 384 384 384C348.250016 384 320 412.249984 320 448C320 483.749984 348.250016 512 384 512zM608 480L608 416L800 416L800 480zM608 352L608 288L800 288L800 352z" />
    <glyph glyph-name="adjust"
      unicode="&#xF042;"
      horiz-adv-x="1024" d="M512 768C300.250016 768 128 595.749984 128 384C128 172.2499840000001 300.250016 0 512 0C723.750016 0 896 172.2499840000001 896 384C896 595.749984 723.750016 768 512 768zM512 704L512 64C334.875008 64 192 206.875008 192 384C192 561.124992 334.875008 704 512 704z" />
    <glyph glyph-name="air-freshener"
      unicode="&#xF5D0;"
      horiz-adv-x="1024" d="M512 832C459.072 832 416 788.928 416 736C416 708.6740864 427.609376 684.1256448 446 666.6249984L289.8124992 448L356.249984 448L228.25 256L480 256L480 192L288 192L288 0L736 0L736 192L544 192L544 256L795.750016 256L667.750016 448L734.187488 448L578.062496 666.6249984C596.432672 684.1236672 608 708.6914336 608 736C608 788.928 564.928 832 512 832zM512 768C529.664 768 544 753.6320000000001 544 736C544 723.080704 536.188 712.0464767999999 525.124992 707L522.687488 706.1249984C519.310336 704.9099104 515.793056 704 512 704C508.206944 704 504.689664 704.9099104 501.312512 706.1249984L498.875008 707C487.812 712.0464767999999 480 723.080704 480 736C480 753.6320000000001 494.336 768 512 768zM505.812512 640.25C507.036384 640.1646144 508.268192 640.2847552000001 509.5 640.25C510.351104 640.2275872 511.143584 640 512 640C512.856416 640 513.648896 640.2275872 514.5 640.25C515.752736 640.2844704 517.005376 640.1631648 518.249984 640.25L609.812512 512L548.249984 512L676.249984 320L347.750016 320L475.750016 512L414.187488 512L505.812512 640.25zM352 128L672 128L672 64L352 64L352 128z" />
    <glyph glyph-name="align-center"
      unicode="&#xF037;"
      horiz-adv-x="1024" d="M96 672L96 608L928 608L928 672zM224 544L224 480L800 480L800 544zM96 416L96 352L928 352L928 416zM224 288L224 224L800 224L800 288zM96 160L96 96L928 96L928 160z" />
    <glyph glyph-name="align-justify"
      unicode="&#xF039;"
      horiz-adv-x="1024" d="M96 672L96 608L928 608L928 672zM96 544L96 480L928 480L928 544zM96 416L96 352L928 352L928 416zM96 288L96 224L928 224L928 288zM96 160L96 96L928 96L928 160z" />
    <glyph glyph-name="align-left"
      unicode="&#xF036;"
      horiz-adv-x="1024" d="M96 672L96 608L928 608L928 672zM96 544L96 480L672 480L672 544zM96 416L96 352L928 352L928 416zM96 288L96 224L672 224L672 288zM96 160L96 96L928 96L928 160z" />
    <glyph glyph-name="align-right"
      unicode="&#xF038;"
      horiz-adv-x="1024" d="M96 672L96 608L928 608L928 672zM352 544L352 480L928 480L928 544zM96 416L96 352L928 352L928 416zM352 288L352 224L928 224L928 288zM96 160L96 96L928 96L928 160z" />
    <glyph glyph-name="allergies"
      unicode="&#xF461;"
      horiz-adv-x="1024" d="M512 832C467.744 832 431.008 800.992 420 760C408.736 764.64 396.864 768 384 768C331.36 768 288 724.64 288 672L288 328L260 356C222.752 393.248 161.248 393.248 124 356C86.752 318.752 86.752 257.2480000000001 124 220L341 3C378.632 -34.504 430.624 -64 492 -64L640 -64C763.36 -64 864 36.64 864 160L864 544C864 596.64 820.64 640 768 640C756.736 640 746.112 637.648 736 634L736 672C736 724.64 692.64 768 640 768C627.136 768 615.264 764.64 604 760C592.992 800.992 556.256 832 512 832zM512 768C530.112 768 544 754.112 544 736L544 416L608 416L608 672C608 690.112 621.888 704 640 704C658.112 704 672 690.112 672 672L672 416L736 416L736 544C736 562.1120000000001 749.888 576 768 576C786.112 576 800 562.1120000000001 800 544L800 160C800 71.264 728.736 0 640 0L492 0C451.264 0 416.248 19.88 387 49L169 265C156.264 277.736 156.264 298.232 169 311C181.736 323.736 202.232 323.736 215 311L297 228L352 173L352 672C352 690.112 365.888 704 384 704C402.112 704 416 690.112 416 672L416 416L480 416L480 736C480 754.112 493.888 768 512 768zM512 352A32 32 0 0 1 512 288A32 32 0 0 1 512 352zM704 352A32 32 0 0 1 704 288A32 32 0 0 1 704 352zM576 256A32 32 0 0 1 576 192A32 32 0 0 1 576 256zM448 224A32 32 0 0 1 448 160A32 32 0 0 1 448 224zM704 224A32 32 0 0 1 704 160A32 32 0 0 1 704 224zM576 128A32 32 0 0 1 576 64A32 32 0 0 1 576 128z" />
    <glyph glyph-name="ambulance"
      unicode="&#xF0F9;"
      horiz-adv-x="1024" d="M576 800C540.624992 800 512 771.375008 512 736L512 704L32 704L32 96L133 96C147.250016 41 196.750016 0 256 0C315.250016 0 364.750016 41 379 96L645 96C659.250016 41 708.750016 0 768 0C827.250016 0 876.750016 41 891 96L992 96L992 460L984 469L792 693L783 704L640 704L640 736C640 771.375008 611.375008 800 576 800zM96 640L753 640L928 436L928 160L891 160C876.750016 215 827.250016 256 768 256C708.750016 256 659.250016 215 645 160L379 160C364.750016 215 315.250016 256 256 256C196.750016 256 147.250016 215 133 160L96 160zM448 544L448 448L352 448L352 384L448 384L448 288L512 288L512 384L608 384L608 448L512 448L512 544zM256 192C291.750016 192 320 163.7499840000001 320 128C320 92.249984 291.750016 64 256 64C220.250016 64 192 92.249984 192 128C192 163.7499840000001 220.250016 192 256 192zM768 192C803.750016 192 832 163.7499840000001 832 128C832 92.249984 803.750016 64 768 64C732.250016 64 704 92.249984 704 128C704 163.7499840000001 732.250016 192 768 192z" />
    <glyph glyph-name="american-sign-language-interpreting"
      unicode="&#xF2A3;"
      horiz-adv-x="1024" d="M295 660L218 568L213 562L212 554L192 467L192 608L128 608L128 384L96 352L96 160L236 191L308 162L314 160L340 160L347 165L433 216L441 222L446 231L478 308L418 332L390 265L340 234C315.5 239.7499840000001 256 260.124992 256 320C256 394.624992 320 416 320 416L370 416L425 361L471 407L407 471L397 480L338 480L344 489L425 539L391 593L303 539L297 536L261 482L273 534L345 620zM684 608L677 603L591 552L583 546L578 537L546 460L606 436L634 503L684 534C708.5 528.249984 768 507.875008 768 448C768 373.375008 704 352 704 352L654 352L599 407L553 361L617 297L627 288L686 288L680 279L599 229L633 175L721 229L727 232L763 286L751 234L679 148L729 108L806 200L811 206L812 214L832 301L832 160L896 160L896 384L928 416L928 608L788 577L716 606L710 608z" />
    <glyph glyph-name="anchor"
      unicode="&#xF13D;"
      horiz-adv-x="1024" d="M512 768C441.624992 768 384 710.375008 384 640C384 580.749984 425 531.249984 480 517L480 448L384 448L384 384L480 384L480 129C402.375008 135.124992 350.750016 163.5 314 196C286 220.7499840000001 267.250016 248 254 271L305 296L177 354L143 216L196 242C211.124992 214.875008 234.624992 180.124992 271 148C317.5 106.749984 386.124992 72.624992 480 66L480 64L512 32L544 64L544 66C637.875008 72.624992 706.5 106.749984 753 148C789.375008 180.124992 812.875008 214.875008 828 242L881 216L847 354L719 296L770 271C756.750016 248 738 220.7499840000001 710 196C673.250016 163.5 621.624992 135.124992 544 129L544 384L640 384L640 448L544 448L544 517C599 531.249984 640 580.749984 640 640C640 710.375008 582.375008 768 512 768zM512 704C547.750016 704 576 675.749984 576 640C576 604.249984 547.750016 576 512 576C476.250016 576 448 604.249984 448 640C448 675.749984 476.250016 704 512 704z" />
    <glyph glyph-name="angle-double-down"
      unicode="&#xF103;"
      horiz-adv-x="1024" d="M167 682L121 637L512 246L903 637L857 682L512 337zM167 458L121 413L512 22L903 413L857 458L512 113z" />
    <glyph glyph-name="angle-double-left"
      unicode="&#xF100;"
      horiz-adv-x="1024" d="M509 743L150 384L509 25L554 71L241 384L554 697zM733 743L374 384L733 25L778 71L465 384L778 697z" />
    <glyph glyph-name="angle-double-right"
      unicode="&#xF101;"
      horiz-adv-x="1024" d="M291 743L246 697L559 384L246 71L291 25L650 384zM515 743L470 697L783 384L470 71L515 25L874 384z" />
    <glyph glyph-name="angle-double-up"
      unicode="&#xF102;"
      horiz-adv-x="1024" d="M512 746L121 355L167 310L512 655L857 310L903 355zM512 522L121 131L167 86L512 431L857 86L903 131z" />
    <glyph glyph-name="angle-down"
      unicode="&#xF107;"
      horiz-adv-x="1024" d="M135 551L89 505L489 105L512 83L535 105L935 505L889 551L512 174z" />
    <glyph glyph-name="angle-left"
      unicode="&#xF104;"
      horiz-adv-x="1024" d="M609 759L257 407L235 384L257 361L609 9L655 55L326 384L655 713z" />
    <glyph glyph-name="angle-right"
      unicode="&#xF105;"
      horiz-adv-x="1024" d="M415 759L369 713L698 384L369 55L415 9L767 361L789 384L767 407z" />
    <glyph glyph-name="angle-up"
      unicode="&#xF106;"
      horiz-adv-x="1024" d="M512 685L489 663L89 263L135 217L512 594L889 217L935 263L535 663z" />
    <glyph glyph-name="angry-face"
      unicode="&#xF556;"
      horiz-adv-x="1024" d="M512 768C300.250016 768 128 595.749984 128 384C128 172.2499840000001 300.250016 0 512 0C723.750016 0 896 172.2499840000001 896 384C896 595.749984 723.750016 768 512 768zM512 704C689.124992 704 832 561.124992 832 384C832 206.875008 689.124992 64 512 64C334.875008 64 192 206.875008 192 384C192 561.124992 334.875008 704 512 704zM342 512C328.5 498.375008 320 479.749984 320 459C320 417.624992 353.624992 384 395 384C415.624992 384 434.5 392.375008 448 406zM682 512L576 406C589.5 392.375008 608.375008 384 629 384C670.375008 384 704 417.624992 704 459C704 479.624992 695.624992 498.5 682 512zM594 325C589.375008 324.875008 584.5 324.624992 580 324C544.124992 318.624992 517 299 493 283C469 267 447.875008 254.5 432 252C416.124992 249.5 401.875008 252 375 279L329 233C365.250016 196.5 406.5 183.375008 442 189C477.5 194.624992 504.124992 214.124992 528 230C551.875008 245.875008 572.375008 257.5 589 260C605.624992 262.5 622 260.375008 650 233L694 279C661.250016 311 626.375008 325.5 594 325z" />
    <glyph glyph-name="ankh"
      unicode="&#xF644;"
      horiz-adv-x="1024" d="M512 832C424 832 352 760 352 672C352 609.375008 387.624992 548 421 498C425.250016 491.5 429.750016 486 434 480L256 480L256 379L293 384L477 410L448 -30L446 -64L578 -64L576 -30L547 410L731 384L768 379L768 480L590 480C594.250016 486 598.750016 491.5 603 498C636.375008 548 672 609.375008 672 672C672 760 600 832 512 832zM512 768C565.375008 768 608 725.375008 608 672C608 637.5 579.624992 578.749984 549 533C530.375008 505 523.750016 498.249984 512 484C500.250016 498.249984 493.624992 505 475 533C444.375008 578.749984 416 637.5 416 672C416 725.375008 458.624992 768 512 768z" />
    <glyph glyph-name="fruit-apple"
      unicode="&#xF5D1;"
      horiz-adv-x="1024" d="M332 769C322.624992 768.875008 317 768 317 768L284 765L288 732C288 732 295.875008 658.875008 348 605C242.250016 588.624992 160 501.375008 160 395C160 280.2499840000001 211.124992 189.2499840000001 271 128C300.875008 97.375008 332.624992 74.249984 363 58C393.375008 41.749984 421.250016 32 448 32C465.5 32 482.5 35 498 40C507.375008 43 516.624992 43 526 40C541.5 35 558.5 32 576 32C605 32 632.875008 44.249984 663 63C693.124992 81.749984 724.5 107.749984 754 140C813 204.375008 864 293.7499840000001 864 395C864 513.124992 762.375008 608 640 608C607.124992 608 576.750016 600 549 587C548.875008 587.875008 548.250016 589.375008 548 591C564.375008 676.375008 624 708 624 708L592 764C592 764 546.875008 736.875008 514 679C503.624992 694.875008 489.875008 710.5 473 724C422.250016 764.5 360 769.249984 332 769zM363 701C385.124992 697.624992 412.5 690.375008 433 674C453.875008 657.375008 467.875008 633 476 612C453.750016 615.249984 425.875008 623.375008 405 640C384.375008 656.5 371.124992 680.124992 363 701zM384 544C425.624992 544 462.624992 528.875008 491 505L512 488L533 505C561.375008 528.875008 598.375008 544 640 544C729.750016 544 800 476.375008 800 395C800 315.624992 758.375008 239 707 183C681.375008 155 653.5 133.124992 629 118C604.5 102.875008 582.250016 96 576 96C565.5 96 555.624992 97.875008 546 101C524 108.124992 500 108.124992 478 101C468.375008 97.875008 458.5 96 448 96C439.375008 96 417.250016 101 393 114C368.750016 127 341.250016 147.124992 316 173C265.5 224.7499840000001 224 299 224 395C224 476.375008 294.250016 544 384 544z" />
    <glyph glyph-name="archive"
      unicode="&#xF187;"
      horiz-adv-x="1024" d="M128 736L128 544L160 544L160 32L864 32L864 544L896 544L896 736zM192 672L832 672L832 608L192 608zM224 544L800 544L800 96L224 96zM410 480C392.375008 478.375008 379.375008 462.624992 381 445C382.624992 427.375008 398.375008 414.375008 416 416L608 416C619.5 415.875008 630.250016 421.875008 636.124992 431.875008C641.875008 441.875008 641.875008 454.124992 636.124992 464.124992C630.250016 474.124992 619.5 480.124992 608 480L416 480C415 480 414 480 413 480C412 480 411 480 410 480z" />
    <glyph glyph-name="archway"
      unicode="&#xF557;"
      horiz-adv-x="1024" d="M96 704L96 512L160 512L160 128L96 128L96 64L160 64L416 64L416 128L416 288C416 340.928 459.072 384 512 384C564.928 384 608 340.928 608 288L608 128L608 64L864 64L928 64L928 128L864 128L864 512L928 512L928 704L96 704zM160 640L864 640L864 576L160 576L160 640zM224 512L800 512L800 128L672 128L672 288C672 376.2240000000001 600.224 448 512 448C423.776 448 352 376.2240000000001 352 288L352 128L224 128L224 512z" />
    <glyph glyph-name="alternate-arrow-circle-down"
      unicode="&#xF358;"
      horiz-adv-x="1024" d="M512 800C282.624992 800 96 613.375008 96 384C96 154.624992 282.624992 -32 512 -32C741.375008 -32 928 154.624992 928 384C928 613.375008 741.375008 800 512 800zM512 736C706.750016 736 864 578.749984 864 384C864 189.2499840000001 706.750016 32 512 32C317.250016 32 160 189.2499840000001 160 384C160 578.749984 317.250016 736 512 736zM480 608L480 288L384 288L512 160L640 288L544 288L544 608z" />
    <glyph glyph-name="alternate-arrow-circle-left"
      unicode="&#xF359;"
      horiz-adv-x="1024" d="M512 800C282.624992 800 96 613.375008 96 384C96 154.624992 282.624992 -32 512 -32C741.375008 -32 928 154.624992 928 384C928 613.375008 741.375008 800 512 800zM512 736C706.750016 736 864 578.749984 864 384C864 189.2499840000001 706.750016 32 512 32C317.250016 32 160 189.2499840000001 160 384C160 578.749984 317.250016 736 512 736zM416 512L288 384L416 256L416 352L736 352L736 416L416 416z" />
    <glyph glyph-name="alternate-arrow-circle-right"
      unicode="&#xF35A;"
      horiz-adv-x="1024" d="M512 800C282.624992 800 96 613.375008 96 384C96 154.624992 282.624992 -32 512 -32C741.375008 -32 928 154.624992 928 384C928 613.375008 741.375008 800 512 800zM512 736C706.750016 736 864 578.749984 864 384C864 189.2499840000001 706.750016 32 512 32C317.250016 32 160 189.2499840000001 160 384C160 578.749984 317.250016 736 512 736zM608 512L608 416L288 416L288 352L608 352L608 256L736 384z" />
    <glyph glyph-name="alternate-arrow-circle-up"
      unicode="&#xF35B;"
      horiz-adv-x="1024" d="M512 800C282.624992 800 96 613.375008 96 384C96 154.624992 282.624992 -32 512 -32C741.375008 -32 928 154.624992 928 384C928 613.375008 741.375008 800 512 800zM512 736C706.750016 736 864 578.749984 864 384C864 189.2499840000001 706.750016 32 512 32C317.250016 32 160 189.2499840000001 160 384C160 578.749984 317.250016 736 512 736zM512 608L384 480L480 480L480 160L544 160L544 480L640 480z" />
    <glyph glyph-name="arrow-circle-down"
      unicode="&#xF0AB;"
      horiz-adv-x="1024" d="M512 800C282.624992 800 96 613.375008 96 384C96 154.624992 282.624992 -32 512 -32C741.375008 -32 928 154.624992 928 384C928 613.375008 741.375008 800 512 800zM512 736C706.750016 736 864 578.749984 864 384C864 189.2499840000001 706.750016 32 512 32C317.250016 32 160 189.2499840000001 160 384C160 578.749984 317.250016 736 512 736zM480 608L480 279L352 407L307 361L512 156L717 361L672 407L544 279L544 608z" />
    <glyph glyph-name="arrow-circle-left"
      unicode="&#xF0A8;"
      horiz-adv-x="1024" d="M512 800C282.624992 800 96 613.375008 96 384C96 154.624992 282.624992 -32 512 -32C741.375008 -32 928 154.624992 928 384C928 613.375008 741.375008 800 512 800zM512 736C706.750016 736 864 578.749984 864 384C864 189.2499840000001 706.750016 32 512 32C317.250016 32 160 189.2499840000001 160 384C160 578.749984 317.250016 736 512 736zM489 589L284 384L489 179L535 224L407 352L736 352L736 416L407 416L535 544z" />
    <glyph glyph-name="arrow-circle-right"
      unicode="&#xF0A9;"
      horiz-adv-x="1024" d="M512 800C282.624992 800 96 613.375008 96 384C96 154.624992 282.624992 -32 512 -32C741.375008 -32 928 154.624992 928 384C928 613.375008 741.375008 800 512 800zM512 736C706.750016 736 864 578.749984 864 384C864 189.2499840000001 706.750016 32 512 32C317.250016 32 160 189.2499840000001 160 384C160 578.749984 317.250016 736 512 736zM535 589L489 544L617 416L288 416L288 352L617 352L489 224L535 179L740 384z" />
    <glyph glyph-name="arrow-circle-up"
      unicode="&#xF0AA;"
      horiz-adv-x="1024" d="M512 800C282.624992 800 96 613.375008 96 384C96 154.624992 282.624992 -32 512 -32C741.375008 -32 928 154.624992 928 384C928 613.375008 741.375008 800 512 800zM512 736C706.750016 736 864 578.749984 864 384C864 189.2499840000001 706.750016 32 512 32C317.250016 32 160 189.2499840000001 160 384C160 578.749984 317.250016 736 512 736zM512 612L307 407L352 361L480 489L480 160L544 160L544 489L672 361L717 407z" />
    <glyph glyph-name="arrow-down"
      unicode="&#xF063;"
      horiz-adv-x="1024" d="M480 768L480 126L263 343L217 297L489 25L512 3L535 25L807 297L761 343L544 126L544 768z" />
    <glyph glyph-name="arrow-left"
      unicode="&#xF060;"
      horiz-adv-x="1024" d="M425 679L153 407L131 384L153 361L425 89L471 135L254 352L896 352L896 416L254 416L471 633z" />
    <glyph glyph-name="arrow-right"
      unicode="&#xF061;"
      horiz-adv-x="1024" d="M599 679L553 633L770 416L128 416L128 352L770 352L553 135L599 89L871 361L893 384L871 407z" />
    <glyph glyph-name="arrow-up"
      unicode="&#xF062;"
      horiz-adv-x="1024" d="M512 765L489 743L217 471L263 425L480 642L480 0L544 0L544 642L761 425L807 471L535 743z" />
    <glyph glyph-name="alternate-arrows"
      unicode="&#xF0B2;"
      horiz-adv-x="1024" d="M512 845.25L329.375008 662.6249984L374.624992 617.3750016L480 722.75L480 416L173.25 416L278.6249984 521.375008L233.3750016 566.624992L50.75 384L233.3750016 201.375008L278.6249984 246.624992L173.25 352L480 352L480 45.249984L374.624992 150.624992L329.375008 105.375008L512 -77.249984L694.624992 105.375008L649.375008 150.624992L544 45.249984L544 352L850.750016 352L745.375008 246.624992L790.624992 201.375008L973.249984 384L790.624992 566.624992L745.375008 521.375008L850.750016 416L544 416L544 722.75L649.375008 617.3750016L694.624992 662.6249984L512 845.25z" />
    <glyph glyph-name="alternate-arrows-horizontal"
      unicode="&#xF337;"
      horiz-adv-x="1024" d="M297 679L25 407L3 384L25 361L297 89L343 135L126 352L898 352L681 135L727 89L999 361L1021 384L999 407L727 679L681 633L898 416L126 416L343 633z" />
    <glyph glyph-name="alternate-arrows-vertical"
      unicode="&#xF338;"
      horiz-adv-x="1024" d="M512 829L489 807L233 551L279 505L480 706L480 62L279 263L233 217L489 -39L512 -61L535 -39L791 217L745 263L544 62L544 706L745 505L791 551L535 807z" />
    <glyph glyph-name="assistive-listening-systems"
      unicode="&#xF2A2;"
      horiz-adv-x="1024" d="M792 852L757 799C807 766.624992 848.5 722.124992 878 669L934 700C899.5 762.124992 850.750016 814 792 852zM738 772L702 719C740.5 692.375008 772.124992 661.124992 795 621L850 653C821.750016 702.5 782.624992 741.124992 738 772zM544 736C402.250016 736 288 621.749984 288 480L352 480C352 587.875008 436.124992 672 544 672C651.875008 672 736 587.875008 736 480C736 408.124992 715.124992 368.875008 692 330C668.875008 291.124992 640 250.624992 640 192C640 139 597 96 544 96L544 32C631.875008 32 704 104.124992 704 192C704 229.375008 723.124992 255.124992 748 297C772.875008 338.875008 800 395.124992 800 480C800 621.749984 685.750016 736 544 736zM544 640C456.124992 640 384 567.875008 384 480L448 480C448 533 491 576 544 576C597 576 640 533 640 480L704 480C704 567.875008 631.875008 640 544 640zM544 480C526.375008 480 512 465.624992 512 448C512 430.375008 526.375008 416 544 416C561.624992 416 576 430.375008 576 448C576 465.624992 561.624992 480 544 480zM448 384C430.375008 384 416 369.624992 416 352C416 334.375008 430.375008 320 448 320C465.624992 320 480 334.375008 480 352C480 369.624992 465.624992 384 448 384zM327 322L289 283L379 193L418 231zM256 192C238.375008 192 224 177.624992 224 160C224 142.375008 238.375008 128 256 128C273.624992 128 288 142.375008 288 160C288 177.624992 273.624992 192 256 192zM160 96C142.375008 96 128 81.624992 128 64C128 46.375008 142.375008 32 160 32C177.624992 32 192 46.375008 192 64C192 81.624992 177.624992 96 160 96z" />
    <glyph glyph-name="asterisk"
      unicode="&#xF069;"
      horiz-adv-x="1024" d="M566.375008 352L764.750016 83.249984L688 32L512 310.375008L336 32L262.375008 83.249984L460.750016 352L163.250016 428.749984L192 512L483.250016 409.624992L464 736L560 736L544 409.624992L832 512L857.624992 425.624992z" />
    <glyph glyph-name="at"
      unicode="&#xF1FA;"
      horiz-adv-x="1024" d="M518 768C282.375008 771.5 93.250016 560.5 133 319C160 155.124992 294.5 26.249984 459 4C569.875008 -11 673.5 21 752 84L712 134C646.5 81.5 560.375008 54.375008 467 67C330.875008 85.375008 219.250016 193.5 197 329C163.5 532.875008 319.750016 706.875008 517 704C685.124992 701.5 826.875008 562.124992 832 394C832.124992 390.375008 832 386.875008 832 383C831.750016 312.5 774.624992 256 704 256C668.250016 256 640 284.2499840000001 640 320L640 576L576 576L576 551C553 566.624992 525.624992 576 496 576C416.875008 576 352 511.124992 352 432L352 336C352 256.875008 416.875008 192 496 192C539.124992 192 577.5 211.624992 604 242C627.5 212.124992 663.375008 192 704 192C809.124992 192 895.624992 277.7499840000001 896 383C896 387.249984 896.124992 391.375008 896 396C889.875008 598.749984 720.750016 765 518 768zM496 512C540.5 512 576 476.5 576 432L576 336C576 291.5 540.5 256 496 256C451.5 256 416 291.5 416 336L416 432C416 476.5 451.5 512 496 512z" />
    <glyph glyph-name="atlas"
      unicode="&#xF558;"
      horiz-adv-x="1024" d="M288 768C235.36 768 192 724.64 192 672L192 96C192 43.36 235.36 0 288 0L832 0L832 768L288 768zM288 704L768 704L768 192L288 192C276.736 192 266.112 189.648 256 186L256 672C256 690.112 269.888 704 288 704zM512 640C406.368 640 320 553.6320000000001 320 448C320 342.3680000000001 406.368 256 512 256C617.632 256 704 342.3680000000001 704 448C704 553.6320000000001 617.632 640 512 640zM534 573C549.488 570.376 564.008 565.648 577 558L579.062496 535L564.062496 541L552.062496 531L554.062496 502L585.062496 511L623.062496 499L613.062496 482L590 496L565 492L541 474L527 432L554 410C554 410 582.558496 415 584.062496 415C585.566496 415 596.062496 388.937504 596.062496 388.937504L580.062496 339.937504C560.414496 327.713504 537.12 320 512 320C504.512 320 497.136 321.752 490 323L483.937504 333L499 389L442 432L389 432L385 440C384.84 442.752 384 445.248 384 448C384 454.88 384.976 461.504 386 468L413 489L470 516L461 553L486 558L497 542L540.062496 550L534 573zM418 361L428.062496 361L447.062496 338C436.150496 344.4 426.48 351.88 418 361zM288 128L768 128L768 64L288 64C269.888 64 256 77.888 256 96C256 114.112 269.888 128 288 128z" />
    <glyph glyph-name="atom"
      unicode="&#xF5D2;"
      horiz-adv-x="1024" d="M512 800C413 800 336.250016 653.5 322.5 450C340.250016 431.124992 361.124992 412.375008 384.250016 394.124992C384.5 415.375008 385.750016 435.624992 387.5 455.5C406.124992 468.375008 429.5 484.124992 448 494.875008C533.124992 544 620.750016 576.375008 694.624992 586C709.124992 587.875008 722.750016 588.749984 735.124992 588.749984C776.624992 588.749984 806 578.749984 816.875008 560C826.624992 543 822.250016 516 805.875008 484.375008C822.624992 468.875008 838.5 453.124992 852.624992 437.249984C888.624992 496.875008 896 551 872.250016 592C844 640.875008 778.124992 661.375008 686.5 649.5C604.375008 638.875008 508.375008 603.624992 416 550.249984C410.124992 546.875008 404.624992 543.124992 398.875008 539.5C421.875008 657.875008 468.624992 736 512 736C532.250016 736 553.250016 718.749984 572.250016 688.749984C594 695.5 615.5 701.375008 636.375008 705.749984C603.250016 765.124992 560.250016 800 512 800zM295 652.375008C225.624992 653.624992 175.375008 632.875008 151.750016 592C126 547.5 136.750016 487.749984 181 422.124992C185 416 189.375008 409.5 194.875008 402.375008C245.124992 336.624992 323.624992 271.124992 416 217.7499840000001C421.875008 214.375008 428 211.375008 434 208C397.375008 195.375008 361.875008 186.2499840000001 329.250016 182C266.875008 173.875008 221.250016 183.624992 207.250016 208C197.375008 225 201.750016 252 218.124992 283.624992C201.375008 299.124992 185.5 314.875008 171.250016 330.624992C135.375008 271.124992 128 217 151.750016 176C174.750016 136.124992 222.750016 115.124992 289.250016 115.124992C304.375008 115.124992 320.624992 116.2499840000001 337.5 118.5C347.250016 119.7499840000001 357 121.375008 367 123.375008L374 124.875008C374.5 124.875008 374.875008 125 375.375008 125.124992C392.375008 128.7499840000001 411.124992 133.7499840000001 432.624992 140.5L453.750016 147C485.124992 157.7499840000001 517.250016 171.124992 549.375008 186.7499840000001C556.375008 210 562.624992 237.124992 567.375008 268.375008C548.875008 258 530.250016 248.624992 511.750016 239.875008C490.375008 249.875008 468.875008 261 448 273.124992C362.750016 322.375008 290.875008 382 245.750016 441.124992C207.5 491.249984 193.124992 535.624992 207.250016 560C216.875008 576.749984 242.375008 586.249984 277.5 588C282.5 610.624992 288.250016 632.124992 295 652.375008zM663.750016 515.249984C638.5 509.375008 611.750016 500.749984 584.375008 489.875008C602.5 479.124992 619.750016 467.624992 636.5 456.124992C638.5 432.875008 640 409.124992 640 384C640 195.2499840000001 580.624992 51.249984 523.5 33.875008C519.624992 32.624992 515.624992 32 512 32C491.750016 32 470.750016 49.124992 451.750016 79.375008C430 72.5 408.5 66.624992 387.624992 62.249984C420.750016 2.875008 463.750016 -32 512 -32C518.375008 -32 524.5 -31.375008 530.5 -30.124992C630.624992 -11.124992 704 160.375008 704 384C704 390.875008 703.5 397.5 703.375008 404.375008C732.624992 379 758.375008 352.875008 778.375008 326.875008C816.5 276.7499840000001 830.875008 232.375008 816.875008 208C807 191.124992 781.875008 181.375008 746.5 179.624992C741.5 157.2499840000001 735.875008 135.624992 729.124992 115.5C730.875008 115.5 733 115.124992 734.750016 115.124992C801.250016 115.124992 849.250016 136.124992 872.250016 176C900.5 224.875008 885.250016 292.2499840000001 829.124992 365.624992C789.375008 417.624992 731.750016 469.375008 663.750016 515.249984zM512 448C476.624992 448 448 419.375008 448 384C448 348.624992 476.624992 320 512 320C547.375008 320 576 348.624992 576 384C576 419.375008 547.375008 448 512 448z" />
    <glyph glyph-name="audio-description"
      unicode="&#xF29E;"
      horiz-adv-x="1024" d="M179 672L169 663C169 663 64 556.749984 64 384C64 211.2499840000001 169 105 169 105L179 96L845 96L855 105C855 105 960 211.2499840000001 960 384C960 556.749984 855 663 855 663L845 672zM209 608L815 608C825.750016 596.624992 896 520.624992 896 384C896 247.375008 825.750016 171.375008 815 160L209 160C198.250016 171.375008 128 247.375008 128 384C128 520.624992 198.250016 596.624992 209 608zM332 512L204 256L276 256L292 288L352 288L352 256L416 256C486.375008 256 544 313.624992 544 384C544 454.375008 486.375008 512 416 512zM511 512C550.250016 482.875008 576 436.5 576 384C576 331.5 550.250016 285.124992 511 256L600 256C625.375008 292.375008 640 336.375008 640 384C640 431.624992 625.375008 475.624992 600 512zM637 512C658.875008 474.249984 672 430.624992 672 384C672 337.375008 658.875008 293.7499840000001 637 256L709 256C726.124992 295.2499840000001 736 338.5 736 384C736 429.5 726.250016 472.749984 709 512zM744 512C759.624992 472.249984 768 429.124992 768 384C768 338.875008 759.624992 295.7499840000001 744 256L812 256C825.124992 296.375008 832 339.375008 832 384C832 428.624992 825.124992 471.624992 812 512zM416 448C451.750016 448 480 419.749984 480 384C480 348.2499840000001 451.750016 320 416 320zM352 408L352 352L324 352z" />
    <glyph glyph-name="award"
      unicode="&#xF559;"
      horiz-adv-x="1024" d="M512 800C492 800 472.124992 793.249984 455 781L402 744L341 736L340 736L339 735C298.250016 725.875008 266.124992 693.749984 257 653L256 652L256 651L248 589L211 541L210 540L210 539C187.624992 503.249984 186.624992 457.124992 211 423L249 370L259 315L156 158L123 109L276 109L313 23L336 -32L369 18L470 170C497.124992 158.875008 527.750016 157.875008 554 170L655 18L688 -32L711 23L748 109L901 109L868 158L768 310L776 370L813 423L814 424L814 425C836.375008 460.749984 837.375008 505.875008 813 540L776 593L764 653L765 653C764.875008 653.749984 764.124992 654.249984 764 655C758.250016 696.875008 725.124992 730.875008 683 736L682 736L622 744L569 781C551.875008 793.249984 532 800 512 800zM512 735C519.375008 735 526.624992 732.749984 532 729L589 688L596 683L604 682L674 672L675 672C689.375008 670.375008 699.375008 660.375008 701 646L701 644L714 573L715 566L720 560L761 503C768.624992 492.375008 769.624992 474.375008 760 459L715 396L714 388L704 318L704 317C703.375008 311.7499840000001 701.624992 306.875008 699 303L697 302L697 301C692.375008 295.5 686 291.875008 678 291L676 291L603 278L595 277L589 272L532 231C521.375008 223.375008 502.375008 222.375008 487 232L435 272L429 277L420 278L350 288L349 288C339.124992 289.124992 331.5 294.2499840000001 327 302C325 305.5 323.5 309.624992 323 314L323 316L310 389L309 397L304 403L263 460C255.375008 470.624992 254.375008 489.624992 264 505L304 557L309 563L310 572L319 639C319.124992 639.5 319.875008 639.5 320 640C324 655.624992 336.375008 668 352 672C352.5 672.124992 352.5 672.875008 353 673L420 682L428 683L435 688L492 729C497.375008 732.749984 504.624992 735 512 735zM733 248L782 173L705 173L697 153L675 102L607 206L622 217L685 228L685 227C685.750016 227.124992 686.250016 227.875008 687 228C704.250016 230.375008 719.875008 237.624992 733 248zM291 247C304.624992 234.7499840000001 322 226.2499840000001 341 224C341.375008 224 341.624992 224 342 224L403 216L417 205L349 102L327 153L319 173L242 173z" />
    <glyph glyph-name="baby"
      unicode="&#xF77C;"
      horiz-adv-x="1024" d="M512 832C441.624992 832 384 774.375008 384 704C384 633.624992 441.624992 576 512 576C582.375008 576 640 633.624992 640 704C640 774.375008 582.375008 832 512 832zM512 768C547.750016 768 576 739.749984 576 704C576 668.249984 547.750016 640 512 640C476.250016 640 448 668.249984 448 704C448 739.749984 476.250016 768 512 768zM512 544C298.624992 544 195 334 195 334L253 306C253 306 297.624992 393.124992 384 444L384 249C371 244.375008 354 237.375008 335 227C317.750016 217.624992 300.124992 205.5 285 189C269.875008 172.5 256.875008 150.375008 256 124C254.5 74.124992 282.624992 29.249984 308 -8C333.375008 -45.250016 359 -74 359 -74L407 -30C407 -30 383.624992 -5.124992 361 28C338.375008 61.124992 319.375008 103.375008 320 122C320.250016 129.7499840000001 323.875008 137.124992 332 146C340.124992 154.875008 352.750016 163.7499840000001 366 171C379.250016 178.2499840000001 392.124992 183.375008 402 187C420.124992 162.7499840000001 455.5 128 512 128C567.624992 128 602.5 161.7499840000001 621 186C630.624992 182.375008 642.250016 177.5 654 171C667.375008 163.7499840000001 680.124992 154.7499840000001 688 146C695.875008 137.2499840000001 699 129.7499840000001 699 122C699 102.124992 679.250016 61.124992 657 29C634.750016 -3.124992 613 -27 613 -27L659 -71C659 -71 684.875008 -43.250016 710 -7C735.124992 29.249984 763 72.875008 763 122C763 148.7499840000001 750.124992 172.2499840000001 735 189C719.875008 205.7499840000001 702.375008 217.5 685 227C668.750016 235.875008 652.624992 242.375008 640 247L640 444C726.375008 393.124992 771 306 771 306L829 334C829 334 725.375008 544 512 544zM512 480C534.875008 480 556.124992 477.375008 576 472L576 234C572.5 227.375008 553.375008 192 512 192C470.624992 192 451.5 227.375008 448 234L448 472C467.875008 477.375008 489.124992 480 512 480z" />
    <glyph glyph-name="baby-carriage"
      unicode="&#xF77D;"
      horiz-adv-x="1024" d="M576 768L576 480L310 480C302.624992 497.375008 290.875008 520.624992 271 547C237.250016 591.875008 179.375008 640 96 640L96 576C155.375008 576 193.5 544.124992 220 509C245.250016 475.5 255 444 256 441C258.624992 332.5 322.624992 238.7499840000001 414 192C362.250016 190.875008 320 148 320 96C320 43.375008 363.375008 0 416 0C468.624992 0 512 43.375008 512 96C512 124.375008 499.750016 150.375008 480 168C500.624992 163.2499840000001 522 160 544 160L640 160C662 160 683.375008 163.2499840000001 704 168C684.250016 150.375008 672 124.375008 672 96C672 43.375008 715.375008 0 768 0C820.624992 0 864 43.375008 864 96C864 148 821.750016 190.875008 770 192C854.250016 235.124992 914.875008 318.2499840000001 926 416C927 425.249984 927.875008 434.5 928 444C928 444.624992 928 445.375008 928 446C928 446 928.250016 451.249984 928 460L928 480L926 480C923.624992 510.624992 917.250016 557 894 606C855.875008 686.249984 769.5 768 608 768zM640 700C755.624992 690.5 809.375008 636.124992 837 578C855.875008 538.124992 860.124992 504.624992 862 480L640 480zM327 416L857 416C840.750016 308.375008 752 224 640 224L544 224C432 224 343.250016 308.375008 327 416zM416 128C434 128 448 114 448 96C448 78 434 64 416 64C398 64 384 78 384 96C384 114 398 128 416 128zM768 128C786 128 800 114 800 96C800 78 786 64 768 64C750 64 736 78 736 96C736 114 750 128 768 128z" />
    <glyph glyph-name="backspace"
      unicode="&#xF55A;"
      horiz-adv-x="1024" d="M371 672L361 663L105 407L83 384L105 361L361 105L371 96L928 96L928 672zM398 608L864 608L864 160L398 160L174 384zM485 520L440 475L531 384L440 293L485 248L576 339L667 248L712 293L621 384L712 475L667 520L576 429z" />
    <glyph glyph-name="backward"
      unicode="&#xF04A;"
      horiz-adv-x="1024" d="M544 736L493 698L109 410L75 384L109 358L493 70L544 32L544 268L813 70L864 33L864 735L813 698L544 500zM800 609L800 159L531 357L495 384L531 411zM480 608L480 160L182 384z" />
    <glyph glyph-name="bacon"
      unicode="&#xF7E5;"
      horiz-adv-x="1024" d="M334 736C243.750016 736 171 664 171 664L160 654L160 416L206 416L215 423C220.875008 427.624992 239.5 442.5 263 456C286.5 469.5 314.375008 480 334 480C360.875008 480 383.5 473.124992 411 465C438.5 456.875008 470.875008 448 512 448C553.124992 448 584.250016 457 611 465C637.750016 473 660.250016 480 690 480C713.624992 480 742 468.749984 765 455C788 441.249984 803.750016 427.624992 808 424L817 416L864 416L864 654L853 664C853 664 780.250016 736 690 736C649.624992 736 618.624992 727 592 719C565.375008 711 542.750016 704 512 704C481.250016 704 458.624992 711 432 719C405.375008 727 374.375008 736 334 736zM334 672C364.750016 672 387.375008 665 414 657C440.624992 649 471.624992 640 512 640C552.375008 640 583.375008 649 610 657C636.624992 665 659.250016 672 690 672C734.750016 672 785.124992 635.375008 800 624L800 603C798.124992 604.124992 797 604.875008 795 606C766.875008 622.749984 729.624992 640 690 640C652.875008 640 624.624992 631 598 623C571.375008 615 546 608 512 608C478 608 451.250016 615 424 623C396.750016 631 368.875008 640 334 640C296.5 640 259.750016 622.624992 231 606C228 604.249984 226.750016 602.749984 224 601L224 624C238.875008 635.375008 289.250016 672 334 672zM334 608C363.5 608 387.624992 601 415 593C442.375008 585 473.250016 576 512 576C550.750016 576 580.250016 585 607 593C633.750016 601 657.750016 608 690 608C719.750016 608 753.375008 593.249984 779 578C787.624992 572.875008 793.750016 568.5 800 564L800 509C799 509.624992 799 509.375008 798 510C769.624992 526.875008 732.5 544 690 544C650.375008 544 619.624992 535 593 527C566.375008 519 543.750016 512 512 512C480.250016 512 456.124992 519.124992 429 527C401.875008 534.875008 371.5 544 334 544C294.5 544 259.375008 527.249984 231 511C227.375008 508.875008 227.375008 508.124992 224 506L224 563C231 567.624992 237.5 572.5 247 578C273.375008 593.375008 307.124992 608 334 608zM334 352C243.750016 352 171 280 171 280L160 270L160 32L206 32L215 39C220.875008 43.624992 239.5 58.5 263 72C286.5 85.5 314.375008 96 334 96C360.875008 96 383.5 89.124992 411 81C438.5 72.875008 470.875008 64 512 64C553.124992 64 584.250016 73 611 81C637.750016 89 660.250016 96 690 96C713.624992 96 742 84.749984 765 71C788 57.249984 803.750016 43.624992 808 40L817 32L864 32L864 270L853 280C853 280 780.250016 352 690 352C649.624992 352 618.624992 343 592 335C565.375008 327 542.750016 320 512 320C481.250016 320 458.624992 327 432 335C405.375008 343 374.375008 352 334 352zM334 288C364.750016 288 387.375008 281 414 273C440.624992 265 471.624992 256 512 256C552.375008 256 583.375008 265 610 273C636.624992 281 659.250016 288 690 288C734.750016 288 785.124992 251.375008 800 240L800 187C798.124992 188.124992 797 188.875008 795 190C766.875008 206.7499840000001 729.624992 224 690 224C652.875008 224 624.624992 215 598 207C571.375008 199 546 192 512 192C478 192 451.250016 199 424 207C396.750016 215 368.875008 224 334 224C296.5 224 259.750016 206.624992 231 190C228 188.2499840000001 226.750016 186.7499840000001 224 185L224 240C238.875008 251.375008 289.250016 288 334 288zM334 192C363.5 192 387.624992 185 415 177C442.375008 169 473.250016 160 512 160C550.750016 160 580.250016 169 607 177C633.750016 185 657.750016 192 690 192C719.750016 192 753.375008 177.2499840000001 779 162C787.624992 156.875008 793.750016 152.5 800 148L800 125C799 125.624992 799 125.375008 798 126C769.624992 142.875008 732.5 160 690 160C650.375008 160 619.624992 151 593 143C566.375008 135 543.750016 128 512 128C480.250016 128 456.124992 135.124992 429 143C401.875008 150.875008 371.5 160 334 160C294.5 160 259.375008 143.2499840000001 231 127C227.375008 124.875008 227.375008 124.124992 224 122L224 147C231 151.624992 237.5 156.5 247 162C273.375008 177.375008 307.124992 192 334 192z" />
    <glyph glyph-name="balance-scale"
      unicode="&#xF24E;"
      horiz-adv-x="1024" d="M512 736C470.624992 736 435.375008 709 422 672L192 672L192 608L237 608L228 592L100 368L96 360L96 352C96 264 168 192 256 192C344 192 416 264 416 352L416 360L412 368L284 592L275 608L422 608C431.750016 581 453 559.749984 480 550L480 128L352 128L352 64L672 64L672 128L544 128L544 550C570.875008 559.749984 592.250016 581.124992 602 608L749 608L740 592L612 368L608 360L608 352C608 264 680 192 768 192C856 192 928 264 928 352L928 360L924 368L796 592L787 608L832 608L832 672L602 672C588.624992 709 553.375008 736 512 736zM512 672C530 672 544 658 544 640C544 622 530 608 512 608C494 608 480 622 480 640C480 658 494 672 512 672zM256 511L329 384L183 384zM768 511L841 384L695 384zM168 320L344 320C331.124992 282.875008 297.750016 256 256 256C214.250016 256 180.875008 282.875008 168 320zM680 320L856 320C843.124992 282.875008 809.750016 256 768 256C726.250016 256 692.875008 282.875008 680 320z" />
    <glyph glyph-name="balance-scale--left-weighted-"
      unicode="&#xF515;"
      horiz-adv-x="1024" d="M752.750016 732.5L585 669.5624992C567.375104 690.4281856 541.382848 704 512 704C459.072 704 416 660.928 416 608C416 607.315296 416.173152 606.6813344 416.187488 606L256 544L96 264L96 255.5C96 167.308 167.776 96 256 96C344.224 96 416 167.308 416 255.5L416 264L288.3124992 487.5L439.187488 546.187488C450.021824 533.444704 463.946112 523.60208 480 517.875008L480 128L480 64L544 64L672 64L672 128L544 128L544 517.875008C581.160032 531.131552 608 566.348512 608 608C608 608.5999136 607.82352 609.1526656 607.812512 609.75L742.750016 660.3750016L608 424.5L608 416C608 327.776 679.776 256 768 256C856.224 256 928 327.776 928 416L928 424.5L784.312512 675.9375008L752.750016 732.5zM512 640C529.664 640 544 625.6320000000001 544 608C544 590.3679999999999 529.664 576 512 576C494.336 576 480 590.3679999999999 480 608C480 625.6320000000001 494.336 640 512 640zM768 575.5L840.875008 448L695.124992 448L768 575.5zM256 415L328.562496 288L183.4375008 288L256 415zM677.937504 384L858.062496 384C844.806688 346.827456 809.669504 320 768 320C726.330496 320 691.193312 346.827456 677.937504 384zM165.75 224L346.249984 224C333.12128 186.592992 297.8373792 159.5 256 159.5C214.1626208 159.5 178.8787296 186.592992 165.75 224z" />
    <glyph glyph-name="balance-scale--right-weighted-"
      unicode="&#xF516;"
      horiz-adv-x="1024" d="M271.25 732.5L239.6875008 675.9375008L96 424.5L96 416C96 327.776 167.776 256 256 256C344.224 256 416 327.776 416 416L416 424.5L281.25 660.3750016L416.187488 609.75C416.1764800000001 609.1526656 416 608.5999136 416 608C416 566.348512 442.839968 531.131552 480 517.875008L480 128L352 128L352 64L480 64L544 64L544 128L544 517.875008C560.053888 523.60208 573.978176 533.444704 584.812512 546.187488L735.687488 487.5L608 264L608 255.5C608 167.308 679.776 96 768 96C856.224 96 928 167.308 928 255.5L928 264L768 544L607.812512 606C607.826848 606.6813344 608 607.315296 608 608C608 660.928 564.928 704 512 704C482.617152 704 456.624896 690.4281856 439 669.5624992L271.25 732.5zM512 640C529.664 640 544 625.6320000000001 544 608C544 590.3679999999999 529.664 576 512 576C494.336 576 480 590.3679999999999 480 608C480 625.6320000000001 494.336 640 512 640zM256 575.5L328.875008 448L183.1249984 448L256 575.5zM768 415L840.562496 288L695.437504 288L768 415zM165.9375008 384L346.062496 384C332.806688 346.827456 297.6695168 320 256 320C214.3304832 320 179.1933184 346.827456 165.9375008 384zM677.750016 224L858.249984 224C845.136992 186.564224 809.857984 159.5 768 159.5C726.142016 159.5 690.863008 186.564224 677.750016 224z" />
    <glyph glyph-name="ban"
      unicode="&#xF05E;"
      horiz-adv-x="1024" d="M512 800C282.624992 800 96 613.375008 96 384C96 154.624992 282.624992 -32 512 -32C741.375008 -32 928 154.624992 928 384C928 613.375008 741.375008 800 512 800zM512 736C706.750016 736 864 578.749984 864 384C864 296.7499840000001 832.375008 217.375008 780 156L289 657C349.624992 706.624992 427.250016 736 512 736zM244 612L735 111C674.375008 61.375008 596.750016 32 512 32C317.250016 32 160 189.2499840000001 160 384C160 471.249984 191.624992 550.624992 244 612z" />
    <glyph glyph-name="band-aid"
      unicode="&#xF462;"
      horiz-adv-x="1024" d="M635 800C623.750016 799.5 614 797 614 797L607 794L102 289L99 282C99 282 96.5 272.2499840000001 96 261C95.5 249.7499840000001 96.875008 233.624992 102 215C112.124992 177.7499840000001 137.750016 128.2499840000001 197 69C256.250016 9.749984 305.750016 -15.875008 343 -26C361.624992 -31.124992 377.750016 -32.5 389 -32C400.250016 -31.5 410 -29 410 -29L417 -26L922 479L925 486C925 486 927.5 495.749984 928 507C928.5 518.249984 927.124992 534.375008 922 553C911.875008 590.249984 886.250016 639.749984 827 699C767.750016 758.249984 718.250016 783.875008 681 794C662.375008 799.124992 646.250016 800.5 635 800zM638 736L639 736C644 736.124992 652.124992 735.249984 664 732C688.624992 725.249984 728.875008 707.249984 782 654L785 650C834.875008 599 853.5 559.875008 860 536C863.250016 524.124992 864.124992 516 864 511C864 510.749984 864 510.124992 864 510L386 32C385.875008 32 385.250016 32 385 32C380 31.875008 371.875008 32.749984 360 36C335.375008 42.749984 295.124992 60.749984 242 114L238 119C189 169.375008 170.5 208.2499840000001 164 232C160.750016 243.875008 159.875008 252 160 257C160 257.2499840000001 160 257.875008 160 258zM608 608C590.375008 608 576 593.624992 576 576C576 558.375008 590.375008 544 608 544C625.624992 544 640 558.375008 640 576C640 593.624992 625.624992 608 608 608zM704 608C686.375008 608 672 593.624992 672 576C672 558.375008 686.375008 544 704 544C721.624992 544 736 558.375008 736 576C736 593.624992 721.624992 608 704 608zM519 519L473 473L601 345L647 391zM704 512C686.375008 512 672 497.624992 672 480C672 462.375008 686.375008 448 704 448C721.624992 448 736 462.375008 736 480C736 497.624992 721.624992 512 704 512zM423 423L377 377L505 249L551 295zM320 320C302.375008 320 288 305.624992 288 288C288 270.375008 302.375008 256 320 256C337.624992 256 352 270.375008 352 288C352 305.624992 337.624992 320 320 320zM320 224C302.375008 224 288 209.624992 288 192C288 174.375008 302.375008 160 320 160C337.624992 160 352 174.375008 352 192C352 209.624992 337.624992 224 320 224zM416 224C398.375008 224 384 209.624992 384 192C384 174.375008 398.375008 160 416 160C433.624992 160 448 174.375008 448 192C448 209.624992 433.624992 224 416 224z" />
    <glyph glyph-name="barcode"
      unicode="&#xF02A;"
      horiz-adv-x="1024" d="M64 672L64 96L128 96L128 672zM192 672L192 96L384 96L384 672zM448 672L448 96L512 96L512 672zM576 672L576 96L704 96L704 672zM768 672L768 96L832 96L832 672zM896 672L896 96L960 96L960 672z" />
    <glyph glyph-name="bars"
      unicode="&#xF0C9;"
      horiz-adv-x="1024" d="M128 672L128 608L896 608L896 672zM128 416L128 352L896 352L896 416zM128 160L128 96L896 96L896 160z" />
    <glyph glyph-name="baseball-ball"
      unicode="&#xF433;"
      horiz-adv-x="1024" d="M512 800C282.624 800 96 613.376 96 384C96 154.624 282.624 -32 512 -32C741.376 -32 928 154.624 928 384C928 613.376 741.376 800 512 800zM512 736C610.897216 736 700.242176 694.8381024 764.249984 628.9375008C731.082176 604.9644384000001 703.31632 574.31808 682.249984 538.249984L737.249984 505.937504C754.172256 534.992704 777.186144 559.8743039999999 804.624992 579.3750016C842.093952 523.438752 864 456.22912 864 384C864 311.7708800000001 842.093952 244.561248 804.624992 188.624992C776.865888 208.445248 753.554496 233.680448 736.312512 263.375008L680.937504 231.375008C702.005024 194.985632 730.441248 163.674592 764.249984 139.062496C700.242176 73.161888 610.897216 32 512 32C413.102784 32 323.7578240000001 73.161888 259.75 139.062496C293.558736 163.674592 321.994976 194.985632 343.062496 231.375008L287.6875008 263.375008C270.4454944 233.680448 247.1341216 208.445248 219.3750016 188.624992C181.9060416 244.561248 160 311.7708800000001 160 384C160 456.22912 181.9060416 523.438752 219.3750016 579.3750016C246.8138464 559.8743039999999 269.8277472 534.992704 286.75 505.937504L341.750016 538.249984C320.68368 574.31808 292.9178112 604.9644384000001 259.75 628.9375008C323.7578240000001 694.8381024 413.102784 736 512 736zM370.562496 473.249984L309.4375008 454.375008C316.4775008 431.335008 320 407.68 320 384C320 360.64 316.7824992 337.587488 310.0624992 315.1874880000001L371.187488 296.937504C379.827488 325.097504 384 354.56 384 384C384 414.08 379.522496 444.130016 370.562496 473.249984zM653.437504 473.249984C644.477504 444.130016 640 414.08 640 384C640 354.56 644.172512 325.097504 652.812512 296.937504L713.937504 315.1874880000001C707.217504 337.587488 704 360.64 704 384C704 407.68 707.522496 431.335008 714.562496 454.375008L653.437504 473.249984z" />
    <glyph glyph-name="basketball-ball"
      unicode="&#xF434;"
      horiz-adv-x="1024" d="M512 800C282.624992 800 96 613.375008 96 384C96 154.624992 282.624992 -32 512 -32C741.375008 -32 928 154.624992 928 384C928 613.375008 741.375008 800 512 800zM476 734C477.375008 734.124992 478.624992 733.875008 480 734L480 416L382 416C375.124992 506 340.124992 588.124992 285 653C337.624992 697.5 403.375008 726.624992 476 734zM544 734C618.124992 727.375008 685.375008 698.375008 739 653C683.875008 588.124992 648.875008 506 642 416L544 416zM240 607C283.750016 554 311.375008 488.375008 318 416L162 416C168.5 488.375008 196.5 554 240 607zM784 607C827.5 554 855.5 488.375008 862 416L706 416C712.624992 488.375008 740.250016 554 784 607zM162 352L318 352C311.375008 279.624992 283.750016 214 240 161C196.5 214 168.5 279.624992 162 352zM382 352L480 352L480 34C405.875008 40.624992 338.624992 69.624992 285 115C340.124992 179.875008 375.124992 262 382 352zM544 352L642 352C648.875008 262 683.875008 179.875008 739 115C685.375008 69.624992 618.124992 40.624992 544 34zM706 352L862 352C855.5 279.624992 827.5 214 784 161C740.250016 214 712.624992 279.624992 706 352z" />
    <glyph glyph-name="bath"
      unicode="&#xF2CD;"
      horiz-adv-x="1024" d="M832 768C761.250016 768 704 710.749984 704 640L640 640L640 576L832 576L832 640L768 640C768 678.124992 793.875008 704 832 704C870.124992 704 896 678.124992 896 640L896 448L32 448L32 384L70 384L119 141L119 140C126.375008 107 150.875008 79.875008 183 69L160 0L224 0L245 64L779 64L800 0L864 0L841 69C874.5 79.249984 900.5 106.124992 908 140L908 141L954 384L992 384L992 448L960 448L960 640C960 710.749984 902.750016 768 832 768zM135 384L890 384L845 153C841.250016 139.124992 829.5 128 813 128L214 128C196.875008 128 185.250016 139.375008 182 154z" />
    <glyph glyph-name="battery-empty"
      unicode="&#xF244;"
      horiz-adv-x="1024" d="M96 640L96 128L864 128L864 288L928 288L928 480L864 480L864 640zM160 576L800 576L800 192L160 192z" />
    <glyph glyph-name="battery-full"
      unicode="&#xF240;"
      horiz-adv-x="1024" d="M96 640L96 128L864 128L864 288L928 288L928 480L864 480L864 640zM160 576L800 576L800 192L160 192zM224 512L224 256L736 256L736 512z" />
    <glyph glyph-name="battery-1-2-full"
      unicode="&#xF242;"
      horiz-adv-x="1024" d="M96 640L96 128L864 128L864 288L928 288L928 480L864 480L864 640zM160 576L800 576L800 192L160 192zM224 512L224 256L480 256L480 512z" />
    <glyph glyph-name="battery-1-4-full"
      unicode="&#xF243;"
      horiz-adv-x="1024" d="M96 640L96 128L864 128L864 288L928 288L928 480L864 480L864 640zM160 576L800 576L800 192L160 192zM224 512L224 256L352 256L352 512z" />
    <glyph glyph-name="battery-3-4-full"
      unicode="&#xF241;"
      horiz-adv-x="1024" d="M96 640L96 128L864 128L864 288L928 288L928 480L864 480L864 640zM160 576L800 576L800 192L160 192zM224 512L224 256L672 256L672 512z" />
    <glyph glyph-name="bed"
      unicode="&#xF236;"
      horiz-adv-x="1024" d="M192 704C139.375008 704 96 660.624992 96 608L96 391C76.5 373.375008 64 348.124992 64 320L64 32L224 32L224 96L800 96L800 32L960 32L960 320C960 348.124992 947.5 373.375008 928 391L928 608C928 660.624992 884.624992 704 832 704zM192 640L832 640C849.750016 640 864 625.749984 864 608L864 416L800 416L800 448C800 500.624992 756.624992 544 704 544L576 544C551.5 544 529 534.375008 512 519C495 534.375008 472.5 544 448 544L320 544C267.375008 544 224 500.624992 224 448L224 416L160 416L160 608C160 625.749984 174.250016 640 192 640zM320 480L448 480C465.750016 480 480 465.749984 480 448L480 416L288 416L288 448C288 465.749984 302.250016 480 320 480zM576 480L704 480C721.750016 480 736 465.749984 736 448L736 416L544 416L544 448C544 465.749984 558.250016 480 576 480zM160 352L864 352C881.750016 352 896 337.7499840000001 896 320L896 96L864 96L864 160L160 160L160 96L128 96L128 320C128 337.7499840000001 142.250016 352 160 352z" />
    <glyph glyph-name="beer"
      unicode="&#xF0FC;"
      horiz-adv-x="1024" d="M432 768C392.124992 768 358.124992 749.375008 332 723C317.750016 728.5 304.250016 736 288 736C217.624992 736 160 678.375008 160 608C160 575.124992 173.375008 545.749984 194 523C192.750016 519.5 192 515.749984 192 512L192 96C192 43.375008 235.375008 0 288 0L672 0C724.624992 0 768 43.375008 768 96L768 160L800 160C852.624992 160 896 203.375008 896 256L896 384C896 436.624992 852.624992 480 800 480L768 480L768 518C768.250016 520.375008 768.250016 522.624992 768 525C787.5 547.5 800 576.124992 800 608C800 678.375008 742.375008 736 672 736C648.124992 736 627 727.5 608 716C589 727.5 567.875008 736 544 736C535.750016 736 529.250016 733.5 522 732C497.124992 752.875008 467 768 432 768zM432 704C455.5 704 476.124992 693.375008 491 677L505 662L525 668C532.124992 670.375008 537.875008 672 544 672C560.375008 672 575.375008 665.5 587 655L608 636L629 655C640.624992 665.5 655.624992 672 672 672C707.750016 672 736 643.749984 736 608C736 572.249984 707.750016 544 672 544C636.5 544 585 559 585 559L544 571L544 528C544 483.124992 553.624992 448.875008 562 423C570.375008 397.124992 576 380.624992 576 368C576 341.124992 554.875008 320 528 320C501.124992 320 480 341.124992 480 368C480 380.624992 485.624992 398.124992 494 424C502.375008 449.875008 512 483.375008 512 528L512 585L464 555C464 555 458.250016 552.124992 451 549C443.750016 545.875008 434.624992 544 432 544C411.375008 544 392.5 551.875008 378 565L355 586L334 564C322.250016 551.875008 306.250016 544 288 544C252.250016 544 224 572.249984 224 608C224 643.749984 252.250016 672 288 672C301 672 312.750016 667.624992 323 661L349 645L367 670C381.5 690.624992 404.750016 704 432 704zM358 504C379.875008 490.375008 404.375008 480 432 480C435.375008 480 436.875008 481.624992 440 482C437.375008 469.624992 437.5 453.749984 434 443C426.375008 419.5 416 397 416 368C416 306.5 466.5 256 528 256C589.5 256 640 306.5 640 368C640 397 629.624992 419.624992 622 443C617.875008 455.749984 616.750016 473.749984 614 489C634.5 484.249984 643.750016 480 672 480C683 480 693.750016 482.375008 704 485L704 458C702.124992 451.749984 702.124992 445.249984 704 439L704 198C703.124992 193.7499840000001 703.124992 189.2499840000001 704 185L704 96C704 77.875008 690.124992 64 672 64L288 64C269.875008 64 256 77.875008 256 96L256 485C266.250016 482.375008 277 480 288 480C314.375008 480 337.624992 490.249984 358 504zM768 416L800 416C818.124992 416 832 402.124992 832 384L832 256C832 237.875008 818.124992 224 800 224L768 224z" />
    <glyph glyph-name="bell"
      unicode="&#xF0F3;"
      horiz-adv-x="1024" d="M512 800C476.624992 800 448 771.375008 448 736C448 733.249984 448.624992 730.624992 449 728C338.375008 699.749984 256 599.249984 256 480L256 192C256 173.875008 242.124992 160 224 160L192 160L192 96L422 96C418.375008 85.875008 416 75.249984 416 64C416 11.375008 459.375008 -32 512 -32C564.624992 -32 608 11.375008 608 64C608 75.249984 605.624992 85.875008 602 96L832 96L832 160L800 160C781.875008 160 768 173.875008 768 192L768 471C768 591.249984 687.624992 698.5 575 728C575.375008 730.624992 576 733.249984 576 736C576 771.375008 547.375008 800 512 800zM498 672C502.624992 672.375008 507.250016 672 512 672C514 672 516 672 518 672C622.5 668.875008 704 577.249984 704 471L704 192C704 180.7499840000001 706.375008 170.124992 710 160L314 160C317.624992 170.124992 320 180.7499840000001 320 192L320 480C320 581.624992 398.250016 664.749984 498 672zM512 96C530 96 544 82 544 64C544 46 530 32 512 32C494 32 480 46 480 64C480 82 494 96 512 96z" />
    <glyph glyph-name="bell-slash"
      unicode="&#xF1F6;"
      horiz-adv-x="1024" d="M119 823L73 777L905 -55L951 -9L832 110L832 160L800 160C782.375008 160 768 174.375008 768 192L768 471C768 593.5 685.375008 697.5 575 727C575.375008 730 576 732.875008 576 736C576 771.375008 547.375008 800 512 800C476.624992 800 448 771.375008 448 736C448 733.249984 448.624992 730.624992 449 728C406.124992 717.124992 366.624992 695.624992 334 664C324.375008 654.749984 315.875008 644.375008 308 634zM498 672C504.5 672.5 511.5 672.249984 518 672C620.624992 668.875008 704 578.875008 704 471L704 238L354 588C361.124992 598.5 368.624992 609 378 618C410.875008 650 452.875008 668.875008 498 672zM257 504C256.250016 495.875008 256 488.249984 256 480L256 192C256 174.375008 241.624992 160 224 160L192 160L192 96L422 96C418.375008 85.875008 416 75.249984 416 64C416 11.375008 459.375008 -32 512 -32C564.624992 -32 608 11.375008 608 64C608 75.249984 605.624992 85.875008 602 96L666 96L602 160L314 160C317.624992 170 320 180.7499840000001 320 192L320 442zM512 96C530 96 544 82 544 64C544 46 530 32 512 32C494 32 480 46 480 64C480 82 494 96 512 96z" />
    <glyph glyph-name="bezier-curve"
      unicode="&#xF55B;"
      horiz-adv-x="1024" d="M384 704L384 608L186 608C172.624992 645 137.375008 672 96 672C43.375008 672 0 628.624992 0 576C0 523.375008 43.375008 480 96 480C137.375008 480 172.624992 507 186 544L260 544C246.875008 531.5 235.5 517.875008 225 503C188 450.624992 166.250016 386 161 320L64 320L64 64L320 64L320 320L226 320C231.250016 373.5 248.750016 426 277 466C304.5 505 339.875008 532.249984 384 541L384 448L640 448L640 541C684.124992 532.249984 719.5 505 747 466C775.250016 426 792.750016 373.5 798 320L704 320L704 64L960 64L960 320L863 320C857.750016 386 836 450.624992 799 503C788.5 517.875008 777.124992 531.5 764 544L838 544C851.375008 507 886.624992 480 928 480C980.624992 480 1024 523.375008 1024 576C1024 628.624992 980.624992 672 928 672C886.624992 672 851.375008 645 838 608L640 608L640 704zM448 640L576 640L576 512L448 512zM96 608C114 608 128 594 128 576C128 558 114 544 96 544C78 544 64 558 64 576C64 594 78 608 96 608zM928 608C946 608 960 594 960 576C960 558 946 544 928 544C910 544 896 558 896 576C896 594 910 608 928 608zM128 256L256 256L256 128L128 128zM768 256L896 256L896 128L768 128z" />
    <glyph glyph-name="bible"
      unicode="&#xF647;"
      horiz-adv-x="1024" d="M288 768C235.375008 768 192 724.624992 192 672L192 96C192 43.375008 235.375008 0 288 0L832 0L832 768zM288 704L768 704L768 192L288 192C276.750016 192 266.124992 189.624992 256 186L256 672C256 690.124992 269.875008 704 288 704zM480 640L480 544L384 544L384 480L480 480L480 256L544 256L544 480L640 480L640 544L544 544L544 640zM288 128L768 128L768 64L288 64C269.875008 64 256 77.875008 256 96C256 114.124992 269.875008 128 288 128z" />
    <glyph glyph-name="bicycle"
      unicode="&#xF206;"
      horiz-adv-x="1024" d="M608 704L608 658L611 652L644 576L366 576L356 562L269 439C249.624992 445 229.250016 448 208 448C93.375008 448 0 354.7499840000001 0 240C0 125.2499840000001 93.250016 32 208 32C317.250016 32 406.624992 116.875008 415 224L525 224L535 238L691 468L712 420C649.875008 383.875008 608 316.5 608 240C608 125.7499840000001 701.750016 32 816 32C930.250016 32 1024 125.7499840000001 1024 240C1024 354.2499840000001 930.250016 448 816 448C800.624992 448 785.5 446.249984 771 443L685 640L784 640C793.124992 640 800 633.124992 800 624C800 614.875008 793.124992 608 784 608L784 544C827.750016 544 864 580.249984 864 624C864 667.749984 827.750016 704 784 704zM256 672L256 608L448 608L416 672zM431 512L644 512L515 322zM375 480L459 288L192 288L192 224L350 224C341.875008 152.2499840000001 281.875008 96 208 96C128.624992 96 64 160.624992 64 240C64 319.375008 128.624992 384 208 384C257.875008 384 302.124992 358.5 328 320L400 320C384.624992 356.875008 359.375008 388.5 327 411zM816 384C895.375008 384 960 319.375008 960 240C960 160.624992 895.375008 96 816 96C736.624992 96 672 160.624992 672 240C672 290.375008 698.624992 334.2499840000001 738 360L803 211L861 237L798 382C804 382.7499840000001 809.875008 384 816 384z" />
    <glyph glyph-name="biking"
      unicode="&#xF84A;"
      horiz-adv-x="1024" d="M624 736C562.5 736 512 685.5 512 624C512 562.5 562.5 512 624 512C685.5 512 736 562.5 736 624C736 685.5 685.5 736 624 736zM624 672C650.875008 672 672 650.875008 672 624C672 597.124992 650.875008 576 624 576C597.124992 576 576 597.124992 576 624C576 650.875008 597.124992 672 624 672zM483 559C466.750016 557.375008 451 549.375008 440 536L365 445C339.124992 413.5 350.375008 363.7499840000001 387 346L497 292L468 132L531 121L565 305L569 329L547 340L414 404L490 496L620 391L629 384L800 384L800 448L651 448L530 545C516.5 555.875008 499.250016 560.624992 483 559zM272 320C193 320 128 255 128 176C128 97 193 32 272 32C351 32 416 97 416 176C416 255 351 320 272 320zM752 320C673 320 608 255 608 176C608 97 673 32 752 32C831 32 896 97 896 176C896 255 831 320 752 320zM272 256C316.124992 256 352 220.124992 352 176C352 131.875008 316.124992 96 272 96C227.875008 96 192 131.875008 192 176C192 220.124992 227.875008 256 272 256zM752 256C796.124992 256 832 220.124992 832 176C832 131.875008 796.124992 96 752 96C707.875008 96 672 131.875008 672 176C672 220.124992 707.875008 256 752 256z" />
    <glyph glyph-name="binoculars"
      unicode="&#xF1E5;"
      horiz-adv-x="1024" d="M352 736C289 736 238.750016 689.875008 228 630C167.5 614.749984 115 575.375008 92 513L91 513L23 322C8.5 292.375008 0 259.124992 0 224C0 100.624992 100.624992 0 224 0C335.124992 0 427.750016 81.624992 445 188C462.375008 170.875008 486 160 512 160C538 160 561.624992 170.875008 579 188C596.250016 81.624992 688.875008 0 800 0C923.375008 0 1024 100.624992 1024 224C1024 255.124992 1017.624992 285 1006 312L933 516L932 517L932 518C908.624992 574.749984 856.875008 614.375008 796 630C785.250016 689.875008 735 736 672 736C612.624992 736 564.375008 694.875008 550 640L474 640C459.624992 694.875008 411.375008 736 352 736zM352 672C390.124992 672 416 646.124992 416 608L416 576L608 576L608 608C608 646.124992 633.875008 672 672 672C710.124992 672 736 646.124992 736 608L736 579L765 576C812.5 571 853.5 537.875008 872 495C872.250016 494.375008 872.750016 493.624992 873 493L897 425C867.624992 439.249984 834.750016 448 800 448C706.375008 448 626.375008 389.875008 593 308C575.875008 334.624992 545.624992 352 512 352C478.375008 352 448.124992 334.624992 431 308C397.624992 389.875008 317.624992 448 224 448C189.750016 448 157.124992 439.875008 128 426L152 491L152 492C170.624992 541.5 209.875008 570.875008 259 576L288 579L288 608C288 646.124992 313.875008 672 352 672zM224 384C312.750016 384 384 312.7499840000001 384 224C384 135.2499840000001 312.750016 64 224 64C135.250016 64 64 135.2499840000001 64 224C64 246.624992 69.624992 267.5 78 287C78.5 288.2499840000001 78.5 289.7499840000001 79 291C104.250016 345.875008 159.375008 384 224 384zM800 384C888.750016 384 960 312.7499840000001 960 224C960 135.2499840000001 888.750016 64 800 64C711.250016 64 640 135.2499840000001 640 224C640 312.7499840000001 711.250016 384 800 384zM512 288C530 288 544 274 544 256C544 238 530 224 512 224C494 224 480 238 480 256C480 274 494 288 512 288z" />
    <glyph glyph-name="biohazard"
      unicode="&#xF780;"
      horiz-adv-x="1024" d="M435 755C348.624992 726.249984 288 649.624992 288 560C288 528 297.250016 495.749984 310 467C278 467 246.750016 458 218 442C141.250016 397.249984 102.750016 306.7499840000001 122 214L186 227C173.250016 291 198.750016 355 250 387C317.250016 425.375008 409.250016 396.749984 454 320C476.375008 281.624992 483.624992 239.624992 474 198C464.375008 159.624992 442 128.2499840000001 410 109C358.750016 80.249984 288 89.249984 240 134L198 86C239.624992 47.624992 294.750016 29 346 29C381.250016 29 413 38 445 54C473.750016 70 496 93.249984 512 122C528 93.249984 550.250016 70 579 54C607.750016 38 642.750016 29 678 29C729.250016 29 784.375008 47.624992 826 86L784 134C736 89.249984 665.250016 80.249984 614 109C582 128.2499840000001 559.624992 159.624992 550 198C540.375008 239.624992 547.624992 281.624992 570 320C614.750016 396.749984 703.624992 425.375008 774 387C825.250016 358.2499840000001 850.750016 294.2499840000001 838 227L902 214C918 306.7499840000001 879.750016 397.249984 803 442C774.250016 458 742 467 710 467C726 495.749984 733 524.749984 733 560C733 649.624992 671.624992 726.249984 582 755L563 694C627 674.749984 669 620.749984 669 560C669 480 598.624992 416 509 416C419.375008 416 349 480 349 560C349 620.749984 390 674.749984 454 694zM512 576C476.750016 576 444.750016 570 416 554C419.250016 531.624992 428.750016 511.749984 448 499C467.250016 508.624992 489.750016 512 509 512C528.250016 512 550.750016 508.624992 570 499C589.250016 511.749984 602 531.624992 602 554C579.624992 570 547.250016 576 512 576zM512 384C531.250016 384 544 371.2499840000001 544 352C544 332.7499840000001 531.250016 320 512 320C492.750016 320 480 332.7499840000001 480 352C480 371.2499840000001 492.750016 384 512 384zM319 342C308.250016 342.7499840000001 297.624992 340.7499840000001 288 336C294.375008 268.7499840000001 329.624992 208.375008 384 170C400 179.624992 409.750016 194.7499840000001 413 214L413 227C381 252.624992 358.375008 288.2499840000001 352 333C340.750016 337.7499840000001 329.750016 341.2499840000001 319 342zM707 339C694.250016 339 681.624992 336.375008 672 330C665.624992 288.375008 643.250016 249.624992 608 224L608 211C611.250016 191.7499840000001 624.250016 175.624992 637 166C694.624992 204.375008 729.624992 265.7499840000001 736 333C726.375008 336.2499840000001 716.624992 339 707 339z" />
    <glyph glyph-name="birthday-cake"
      unicode="&#xF1FD;"
      horiz-adv-x="1024" d="M512 856L486 818C486 818 468.750016 793.875008 452 765C443.624992 750.5 435.750016 735.375008 429 720C422.250016 704.624992 416 690.5 416 672C416 619.375008 459.375008 576 512 576C564.624992 576 608 619.375008 608 672C608 690.5 601.750016 704.624992 595 720C588.250016 735.375008 580.375008 750.5 572 765C555.250016 793.875008 538 818 538 818zM512 576L416 576L416 448L224 448C153.250016 448 96 390.749984 96 320C96 287.5 108 257.624992 128 235L128 0L896 0L896 235C916 257.624992 928 287.5 928 320C928 390.749984 870.750016 448 800 448L608 448L608 576zM512 740C514.124992 736.5 513.875008 736.749984 516 733C523.624992 719.875008 531.750016 705.875008 537 694C542.250016 682.124992 544 671.124992 544 672C544 654.249984 529.750016 640 512 640C494.250016 640 480 654.249984 480 672C480 671.124992 481.750016 682.124992 487 694C492.250016 705.875008 500.375008 719.875008 508 733C510.124992 736.749984 509.875008 736.5 512 740zM480 512L544 512L544 448L480 448zM224 384L800 384C838.124992 384 864 358.124992 864 320C864 281.875008 838.124992 256 800 256C761.875008 256 736 281.875008 736 320L672 320C672 281.875008 646.124992 256 608 256C569.875008 256 544 281.875008 544 320L480 320C480 281.875008 454.124992 256 416 256C377.875008 256 352 281.875008 352 320L288 320C288 281.875008 262.124992 256 224 256C185.875008 256 160 281.875008 160 320C160 358.124992 185.875008 384 224 384zM320 235C343.5 208.5 377.750016 192 416 192C454.250016 192 488.5 208.5 512 235C535.5 208.5 569.750016 192 608 192C646.250016 192 680.5 208.5 704 235C727.5 208.5 761.750016 192 800 192C811.124992 192 821.750016 194.375008 832 197L832 64L192 64L192 197C202.250016 194.375008 212.875008 192 224 192C262.250016 192 296.5 208.5 320 235z" />
    <glyph glyph-name="blender"
      unicode="&#xF517;"
      horiz-adv-x="1024" d="M256 736C203.072 736 160 692.928 160 640L160 480C160 427.072 203.072 384 256 384L359.750016 384L379.8125120000001 223.562496C328.863392 221.313824 288 179.4928640000001 288 128L288 32L832 32L832 128C832 178.165856 793.167584 219.012256 744.062496 223.187488L862.624992 736L448 736L315.75 736L256 736zM256 672L323.750016 672L351.750016 448L256 448C238.368 448 224 462.368 224 480L224 640C224 657.6320000000001 238.368 672 256 672zM388.249984 672L448 672L782.124992 672L767.312512 608L608 608L608 544L752.562496 544L737.750016 480L608 480L608 416L722.937504 416L708.124992 352L608 352L608 288L693.375008 288L678.562496 224L444.249984 224L388.249984 672zM384 160L736 160C753.632 160 768 145.632 768 128L768 96L352 96L352 128C352 145.632 366.368 160 384 160z" />
    <glyph glyph-name="blender-phone"
      unicode="&#xF6B6;"
      horiz-adv-x="1024" d="M210.5 736C199.9384992 735.6355008 189.9189984 730.1915008 184.3750016 720.6875008C148.5989984 659.4715008000001 128 588.096 128 512C128 435.904 148.6004992 364.560512 184.3124992 303.312512C191.7044992 290.672512 207.048 285.215008 221 289.375008L283.1875008 307.937504C287.5395008 312.3535040000001 289.0769984 318.861984 287.1249984 324.750016L261.5624992 402.3125120000001C259.3544992 409.032512 253.1009984 413.562496 246.1249984 413.562496L219.6875008 413.562496C212.3275008 413.562496 205.7004992 418.487488 203.8124992 425.687488C196.6444992 453.271488 192.9375008 482.272 192.9375008 512C192.9375008 541.7280000000001 196.6444992 570.728512 203.8124992 598.3124992C205.6684992 605.5124992 212.3275008 610.4375008 219.6875008 610.4375008L246.1875008 610.4375008C253.1635008 610.4375008 259.3850016 614.9370016 261.6249984 621.6249984L287.1875008 699.25C289.1075008000001 705.17 287.602 711.6784992 283.25 716.0624992L221.0624992 734.6249984C217.5744992 735.6730016 214.0204992 736.1215008 210.5 736zM319.8750016 736L380.062496 223.624992C328.993056 221.507584 288 179.5797760000001 288 128L288 32L832 32L832 128C832 178.165856 793.167584 219.012256 744.062496 223.187488L862.624992 736L319.8750016 736zM391.875008 672L782.124992 672L767.312512 608L608 608L608 544L752.562496 544L737.750016 480L608 480L608 416L722.937504 416L708.124992 352L608 352L608 288L693.375008 288L678.562496 224L444.5 224L391.875008 672zM384 160L387.5 160L729.437504 160L736 160C753.632 160 768 145.632 768 128L768 96L352 96L352 128C352 145.632 366.368 160 384 160z" />
    <glyph glyph-name="blind"
      unicode="&#xF29D;"
      horiz-adv-x="1024" d="M464 800C402.5 800 352 749.5 352 688C352 626.5 402.5 576 464 576C525.5 576 576 626.5 576 688C576 749.5 525.5 800 464 800zM464 736C490.875008 736 512 714.875008 512 688C512 661.124992 490.875008 640 464 640C437.124992 640 416 661.124992 416 688C416 714.875008 437.124992 736 464 736zM346 568C329.5 566.624992 314.124992 558.749984 303 546L245 479C237.375008 470.249984 232 459.5 230 448L208 324L271 313L293 437L351 504L352 504L377 499L339 327C335.124992 309.124992 339.250016 290.7499840000001 350 276L527 32L606 32L402 314L440 487L455 484L479 400C484.624992 380.7499840000001 499.124992 365.124992 518 358L613 322L737 42L767 54L640 340L653 375L541 418L516 502C509.375008 525.124992 490.624992 542.5 467 547L363 567C357.5 568 351.5 568.5 346 568zM335 223L319 161L226 32L305 32L379 133L383 152z" />
    <glyph glyph-name="blog"
      unicode="&#xF781;"
      horiz-adv-x="1024" d="M464.624992 767.6875008C455.664992 768.0075008 448 760.6550016 448 751.3750016L448 688C448 679.04 455.04 672 464 672L464 671.3750016C663.36 663.6950016000001 823.695008 503.36 831.375008 304L832 304C832 295.04 839.04 288 848 288L911.375008 288C920.655008 288 928.007488 295.664992 927.687488 304.624992C919.047488 556.144992 716.144992 759.0475008 464.624992 767.6875008zM464.624992 607.6875008C455.664992 608.0075008 448 600.3349984 448 591.3750016L448 528C448 519.04 455.04 512 464 512L464 511.062496C575.04 503.702496 663.702496 415.04 671.062496 304L672 304C672 295.04 679.04 288 688 288L751.375008 288C760.335008 288 768.007488 295.664992 767.687488 304.624992C759.047488 467.824992 627.824992 599.0475008000001 464.624992 607.6875008zM176 576C167.04 576 160 568.96 160 560L160 208C160 93.4400000000001 253.44 0 368 0C482.56 0 576 93.4400000000001 576 208C576 322.56 482.56 416 368 416C359.04 416 352 408.96 352 400L352 304C352 295.04 359.04 288 368 288C412.1600000000001 288 448 252.16 448 208C448 163.84 412.1600000000001 128 368 128C323.84 128 288 163.84 288 208L288 560C288 568.96 280.96 576 272 576L176 576z" />
    <glyph glyph-name="bold"
      unicode="&#xF032;"
      horiz-adv-x="1024" d="M512 672C601.624992 672 672 601.624992 672 512C672 470.375008 656 435.249984 630.375008 406.375008C691.250016 384 736 326.375008 736 256C736 166.375008 665.624992 96 576 96L224 96L224 672L512 672M288 416L512 416C566.375008 416 608 457.624992 608 512C608 566.375008 566.375008 608 512 608L288 608L288 416M288 160L576 160C630.375008 160 672 201.624992 672 256C672 310.375008 630.375008 352 576 352L288 352L288 160M512 736L160 736L160 32L576 32C700.750016 32 800 131.2499840000001 800 256C800 323.2499840000001 768 387.249984 720 428.749984C729.624992 454.375008 736 483.249984 736 512C736 636.749984 636.750016 736 512 736zM352 544L512 544C531.250016 544 544 531.249984 544 512C544 492.749984 531.250016 480 512 480L352 480zM352 288L576 288C595.250016 288 608 275.2499840000001 608 256C608 236.7499840000001 595.250016 224 576 224L352 224z" />
    <glyph glyph-name="lightning-bolt"
      unicode="&#xF0E7;"
      horiz-adv-x="1024" d="M512 704L512 416L640 384L515.250016 64L512 64L512 321L384 353L508.750016 704L512 704M576 768L463.624992 768L448.5 725.5L323.624992 374.375008L300.124992 308L368.5 290.875008L448 271L448 0L559 0L574.875008 40.749984L699.624992 360.7499840000001L726 428.5L576 466z" />
    <glyph glyph-name="bomb"
      unicode="&#xF1E2;"
      horiz-adv-x="1024" d="M791.5 708.249984C780.250016 708 768.750016 706 757.875008 702.375008C691.124992 680.124992 652.124992 629.749984 630.875008 591.624992C611.624992 601.749984 589.875008 608 566.375008 608L553.624992 608L502.375008 556.875008C460.750016 576 419.124992 582.375008 371.124992 576C249.624992 566.375008 144 464 131.250016 339.124992C121.624992 256 150.375008 172.7499840000001 208 112C259.250016 60.749984 329.624992 32 400 32C412.750016 32 422.375008 32 435.124992 35.124992C560 51.124992 659.124992 150.375008 675.124992 278.375008C678.375008 326.375008 672 371.2499840000001 656 409.624992L704 457.624992L704 470.375008C704 499.249984 695.375008 526 680.5 548C694.624992 576.5 724.875008 623.875008 778.124992 641.624992C801.624992 649.5 814.124992 645 821.5 632.249984C829 619.624992 832.750016 585.124992 803.375008 526.375008C780.375008 483.375008 710.5 364.124992 760.624992 180L672 169.624992L755.124992 128L691.124992 38.375008L790.375008 92.875008L828.875008 38.375008L828.875008 108.875008L931.124992 73.624992L864 140.875008L918.375008 182.375008L848 182.375008L848 320L811.375008 245C788 378.5 837 453.249984 860.250016 497C860.375008 497.124992 860.5 497.375008 860.624992 497.624992C895.250016 566.875008 900.624992 623.624992 876.875008 664.5C865 684.875008 846.124992 698 824.875008 704.249984C814.250016 707.249984 802.875008 708.624992 791.5 708.249984zM579.124992 544C608 537.624992 633.624992 515.124992 640 483.124992L611.124992 454.375008C579.124992 457.624992 553.624992 483.124992 550.375008 515.124992zM403.124992 515.124992C435.124992 515.124992 464 508.875008 489.624992 492.875008C502.375008 441.624992 540.750016 403.249984 592 393.624992C608 361.624992 614.375008 326.375008 611.124992 284.875008C601.624992 188.875008 521.624992 108.749984 428.875008 99.124992C364.875008 92.749984 300.750016 112 256 160C211.250016 204.7499840000001 188.750016 268.875008 195.250016 332.875008C204.750016 425.624992 284.875008 505.624992 377.624992 512C387.250016 512 396.750016 515.124992 403.124992 515.124992z" />
    <glyph glyph-name="bone"
      unicode="&#xF5D7;"
      horiz-adv-x="1024" d="M640 768C569.624992 768 512 710.375008 512 640C512 608 526.5 581.375008 546 559L337 350C314.624992 369.5 288 384 256 384C185.624992 384 128 326.375008 128 256C128 185.624992 185.624992 128 256 128C256 57.624992 313.624992 0 384 0C454.375008 0 512 57.624992 512 128C512 160 497.5 186.624992 478 209L687 418C709.375008 398.5 736 384 768 384C838.375008 384 896 441.624992 896 512C896 582.375008 838.375008 640 768 640C768 710.375008 710.375008 768 640 768zM640 704C675.750016 704 704 675.749984 704 640C704 634.5 703.124992 628.875008 701 622L695 603L709 590L718 581L731 567L750 573C756.875008 575.124992 762.5 576 768 576C803.750016 576 832 547.749984 832 512C832 476.249984 803.750016 448 768 448C744.624992 448 725.375008 460.375008 714 479L692 514L664 485L411 232L382 204L417 182C435.624992 170.624992 448 151.375008 448 128C448 92.249984 419.750016 64 384 64C348.250016 64 320 92.249984 320 128C320 133.5 320.875008 139.124992 323 146L329 165L315 178L306 187L293 201L274 195C267.124992 192.875008 261.5 192 256 192C220.250016 192 192 220.2499840000001 192 256C192 291.7499840000001 220.250016 320 256 320C279.375008 320 298.624992 307.624992 310 289L332 254L360 283L613 536L642 564L607 586C588.375008 597.375008 576 616.624992 576 640C576 675.749984 604.250016 704 640 704z" />
    <glyph glyph-name="bong"
      unicode="&#xF55C;"
      horiz-adv-x="1024" d="M384 768L384 704L640 704L640 768L384 768zM416 672L416 426.3125120000001C322.913824 387.98736 256 298.85376 256 192C256 120.46368 285.6049504 55.179072 333.249984 9L342.562496 0L681.437504 0L690.750016 9C738.395072 55.179072 768 120.46368 768 192C768 238.4919680000001 752.99664 280.4701760000001 731.312512 318.062496L792.562496 379.312512L815.187488 356.6874880000001L860.437504 401.937504L769.937504 492.437504L724.687488 447.187488L747.312512 424.562496L692.249984 369.5C668.248576 393.86064 640.126272 413.085568 608 426.3125120000001L608 672L544 672L544 382.875008L566.875008 376.062496C625.67936 358.563616 672.464288 313.701792 692.812512 256L331.187488 256C351.535712 313.701792 398.3206400000001 358.563616 457.124992 376.062496L480 382.875008L480 672L416 672zM320 192L704 192C704 142.055072 683.461568 97.817408 652.375008 64L371.624992 64C340.538432 97.817408 320 142.055072 320 192z" />
    <glyph glyph-name="book"
      unicode="&#xF02D;"
      horiz-adv-x="1024" d="M288 768C235.375008 768 192 724.624992 192 672L192 96C192 43.375008 235.375008 0 288 0L832 0L832 768zM288 704L768 704L768 192L288 192C276.750016 192 266.124992 189.624992 256 186L256 672C256 690.124992 269.875008 704 288 704zM352 608L352 544L704 544L704 608zM288 128L768 128L768 64L288 64C269.875008 64 256 77.875008 256 96C256 114.124992 269.875008 128 288 128z" />
    <glyph glyph-name="book-of-the-dead"
      unicode="&#xF6B7;"
      horiz-adv-x="1024" d="M288 768C235.36 768 192 724.64 192 672L192 96C192 43.36 235.36 0 288 0L832 0L832 768L288 768zM288 704L768 704L768 192L288 192C276.736 192 266.112 189.648 256 186L256 672C256 690.112 269.888 704 288 704zM512 608C322.368 608 354 352 354 352L416 352L416 288L608 288L608 352L670 352C670 352 701.632 608 512 608zM448 480C465.6 480 480 465.6 480 448C480 430.4 465.6 416 448 416C430.4 416 416 430.4 416 448C416 465.6 430.4 480 448 480zM576 480C593.6 480 608 465.6 608 448C608 430.4 593.6 416 576 416C558.4 416 544 430.4 544 448C544 465.6 558.4 480 576 480zM512 416L544 352L480 352L512 416zM288 128L768 128L768 64L288 64C269.888 64 256 77.888 256 96C256 114.112 269.888 128 288 128z" />
    <glyph glyph-name="medical-book"
      unicode="&#xF7E6;"
      horiz-adv-x="1024" d="M288 768C235.375008 768 192 724.624992 192 672L192 96C192 43.375008 235.375008 0 288 0L832 0L832 768zM288 704L768 704L768 192L288 192C276.750016 192 266.124992 189.624992 256 186L256 672C256 690.124992 269.875008 704 288 704zM480 576L480 480L384 480L384 416L480 416L480 320L544 320L544 416L640 416L640 480L544 480L544 576zM288 128L768 128L768 64L288 64C269.875008 64 256 77.875008 256 96C256 114.124992 269.875008 128 288 128z" />
    <glyph glyph-name="book-open"
      unicode="&#xF518;"
      horiz-adv-x="1024" d="M96 704L96 96L416 96C451.250016 96 480 67.249984 480 32L544 32C544 67.249984 572.750016 96 608 96L928 96L928 704L608 704C569.875008 704 535.5 687.124992 512 660.5C488.5 687.124992 454.124992 704 416 704zM160 640L416 640C451.250016 640 480 611.249984 480 576L544 576C544 611.249984 572.750016 640 608 640L864 640L864 160L608 160C569.875008 160 535.5 143.124992 512 116.5C488.5 143.124992 454.124992 160 416 160L160 160zM480 512L480 448L544 448L544 512zM480 384L480 320L544 320L544 384zM480 256L480 192L544 192L544 256z" />
    <glyph glyph-name="book-reader"
      unicode="&#xF5DA;"
      horiz-adv-x="1024" d="M512 768C406.375008 768 320 681.624992 320 576C320 543.749984 327.875008 513.749984 342 487C283.624992 501.249984 212.5 512 128 512L87 512L199 64L224 64C333 64 400 48.375008 439 34C458.5 26.749984 470.875008 19.624992 478 15C485.124992 10.375008 486 10 486 10L495 0L529 0L538 10C538 10 538.875008 10.375008 546 15C553.124992 19.624992 565.5 26.749984 585 34C624 48.375008 691 64 800 64L825 64L937 512L896 512C811.875008 512 740.875008 501.875008 683 488C696.750016 514.375008 704 544.249984 704 576C704 681.624992 617.624992 768 512 768zM512 704C583.124992 704 640 647.124992 640 576C640 504.875008 583.124992 448 512 448C440.875008 448 384 504.875008 384 576C384 647.124992 440.875008 704 512 704zM170 444C269.5 439.124992 350.750016 421.875008 404 402C446.875008 386 468 373.624992 480 366L480 86C474.250016 88.624992 469 91.375008 462 94C418.750016 110 347.750016 123.5 249 126zM854 444L775 126C676.250016 123.5 605.250016 110 562 94C555 91.375008 549.750016 88.624992 544 86L544 366C556 373.7499840000001 577 386.249984 619 402C671.875008 421.875008 753.250016 439.124992 854 444z" />
    <glyph glyph-name="bookmark"
      unicode="&#xF02E;"
      horiz-adv-x="1024" d="M224 736L224 0L275 38L512 216L749 38L800 0L800 736zM288 672L736 672L736 128L531 282L512 296L493 282L288 128z" />
    <glyph glyph-name="border-all"
      unicode="&#xF84C;"
      horiz-adv-x="1024" d="M160 736L160 32L864 32L864 736L160 736zM224 672L480 672L480 416L224 416L224 672zM544 672L800 672L800 416L544 416L544 672zM224 352L480 352L480 96L224 96L224 352zM544 352L800 352L800 96L544 96L544 352z" />
    <glyph glyph-name="border-none"
      unicode="&#xF850;"
      horiz-adv-x="1024" d="M160 736L160 672L160 608L224 608L224 672L288 672L288 736L160 736zM352 736L352 672L480 672L480 736L352 736zM544 736L544 672L672 672L672 736L544 736zM736 736L736 672L800 672L800 608L864 608L864 672L864 736L800 736L736 736zM480 608L480 480L544 480L544 608L480 608zM160 544L160 416L224 416L224 544L160 544zM800 544L800 416L864 416L864 544L800 544zM288 416L288 352L416 352L416 416L288 416zM480 416L480 352L544 352L544 416L480 416zM608 416L608 352L736 352L736 416L608 416zM160 352L160 224L224 224L224 352L160 352zM800 352L800 224L864 224L864 352L800 352zM480 288L480 160L544 160L544 288L480 288zM160 160L160 32L224 32L288 32L288 96L224 96L224 160L160 160zM800 160L800 96L736 96L736 32L800 32L864 32L864 96L864 160L800 160zM352 96L352 32L480 32L480 96L352 96zM544 96L544 32L672 32L672 96L544 96z" />
    <glyph glyph-name="border-style"
      unicode="&#xF853;"
      horiz-adv-x="1024" d="M160 736L160 96L160 32L224 32L288 32L288 96L224 96L224 672L800 672L800 608L864 608L864 672L864 736L800 736L160 736zM800 544L800 416L864 416L864 544L800 544zM800 352L800 224L864 224L864 352L800 352zM800 160L800 96L736 96L736 32L864 32L864 96L864 160L800 160zM352 96L352 32L480 32L480 96L352 96zM544 96L544 32L672 32L672 96L544 96z" />
    <glyph glyph-name="bowling-ball"
      unicode="&#xF436;"
      horiz-adv-x="1024" d="M512 800C282.624 800 96 613.376 96 384C96 154.624 282.624 -32 512 -32C741.376 -32 928 154.624 928 384C928 613.376 741.376 800 512 800zM512 736C706.08 736 864 578.0799999999999 864 384C864 189.92 706.08 32 512 32C317.92 32 160 189.92 160 384C160 578.0799999999999 317.92 736 512 736zM464 608A48 48 0 0 1 464 512A48 48 0 0 1 464 608zM336 480A48 48 0 0 1 336 384A48 48 0 0 1 336 480zM496 448A48 48 0 0 1 496 352A48 48 0 0 1 496 448z" />
    <glyph glyph-name="box"
      unicode="&#xF466;"
      horiz-adv-x="1024" d="M272 736L262 723L160 587L160 32L864 32L864 587L762 723L752 736zM304 672L480 672L480 608L256 608zM544 672L720 672L768 608L544 608zM224 544L800 544L800 96L224 96zM410 480C392.375008 478.375008 379.375008 462.624992 381 445C382.624992 427.375008 398.375008 414.375008 416 416L608 416C619.5 415.875008 630.250016 421.875008 636.124992 431.875008C641.875008 441.875008 641.875008 454.124992 636.124992 464.124992C630.250016 474.124992 619.5 480.124992 608 480L416 480C415 480 414 480 413 480C412 480 411 480 410 480z" />
    <glyph glyph-name="box-open"
      unicode="&#xF49E;"
      horiz-adv-x="1024" d="M512 768L352 640L672 640zM272 736L160 587L160 32L864 32L864 587L752 736L592 736L672 672L720 672L768 608L256 608L304 672L352 672L432 736zM224 544L800 544L800 96L224 96zM410 480C392.375008 478.375008 379.375008 462.624992 381 445C382.624992 427.375008 398.375008 414.375008 416 416L608 416C619.5 415.875008 630.250016 421.875008 636.124992 431.875008C641.875008 441.875008 641.875008 454.124992 636.124992 464.124992C630.250016 474.124992 619.5 480.124992 608 480L416 480C415 480 414 480 413 480C412 480 411 480 410 480z" />
    <glyph glyph-name="boxes"
      unicode="&#xF468;"
      horiz-adv-x="1024" d="M320 768L320 416L704 416L704 768L320 768zM384 704L448 704L448 576L512 640L576 576L576 704L640 704L640 480L384 480L384 704zM96 352L96 0L480 0L480 352L96 352zM544 352L544 0L928 0L928 352L544 352zM160 288L224 288L224 160L288 224L352 160L352 288L416 288L416 64L160 64L160 288zM608 288L672 288L672 160L736 224L800 160L800 288L864 288L864 64L608 64L608 288z" />
    <glyph glyph-name="braille"
      unicode="&#xF2A1;"
      horiz-adv-x="1024" d="M384 704C348.624992 704 320 675.375008 320 640C320 604.624992 348.624992 576 384 576C419.375008 576 448 604.624992 448 640C448 675.375008 419.375008 704 384 704zM640 704C604.624992 704 576 675.375008 576 640C576 604.624992 604.624992 576 640 576C675.375008 576 704 604.624992 704 640C704 675.375008 675.375008 704 640 704zM384 448C348.624992 448 320 419.375008 320 384C320 348.624992 348.624992 320 384 320C419.375008 320 448 348.624992 448 384C448 419.375008 419.375008 448 384 448zM640 448C604.624992 448 576 419.375008 576 384C576 348.624992 604.624992 320 640 320C675.375008 320 704 348.624992 704 384C704 419.375008 675.375008 448 640 448zM384 192C348.624992 192 320 163.375008 320 128C320 92.624992 348.624992 64 384 64C419.375008 64 448 92.624992 448 128C448 163.375008 419.375008 192 384 192zM640 192C604.624992 192 576 163.375008 576 128C576 92.624992 604.624992 64 640 64C675.375008 64 704 92.624992 704 128C704 163.375008 675.375008 192 640 192z" />
    <glyph glyph-name="brain"
      unicode="&#xF5DC;"
      horiz-adv-x="1024" d="M416 768C354.875008 768 305.375008 723.624992 293 666C218.375008 652.624992 160 590.375008 160 512C160 504.124992 160.875008 497.124992 162 490C141.375008 459.624992 128 423.875008 128 384C128 326.5 156.624992 278.124992 197 243C194.124992 231.624992 192 220.2499840000001 192 208C192 128.875008 256.875008 64 336 64C336.875008 64 337.250016 64 338 64C356.624992 27.875008 388.875008 0 432 0C463.250016 0 491.624992 13.124992 512 34C532.375008 13.124992 560.750016 0 592 0C635.124992 0 667.375008 27.875008 686 64C686.750016 64 687.124992 64 688 64C763.124992 64 824.750016 122.5 831 196L832 196C832 198 831.124992 200 831 202C831.124992 204 832 206 832 208C832 219.875008 827.750016 230 825 241C866.5 276.2499840000001 896 325.5 896 384C896 423.875008 882.624992 459.624992 862 490C863.124992 497.124992 864 504.124992 864 512C864 590.375008 805.624992 652.624992 731 666C718.624992 723.624992 669.124992 768 608 768C569.624992 768 535.5 750.124992 512 723C488.5 750.124992 454.375008 768 416 768zM416 704C451.750016 704 480 675.749984 480 640L480 576C480 522.624992 437.375008 480 384 480L384 416C420.250016 416 453.124992 428.5 480 449L480 112C480 85.124992 458.875008 64 432 64C408.124992 64 389 80.5 385 103L379 134L348 129C342.375008 128.124992 338.875008 128 336 128C291.5 128 256 163.5 256 208C256 217.875008 257.624992 227.124992 261 236C261.250016 236.7499840000001 261.750016 237.2499840000001 262 238C271.875008 262.624992 293.375008 280.624992 320 286L307 349C273.624992 342.2499840000001 244.624992 324.5 224 299C203.875008 321.5 192 351.2499840000001 192 384C192 414 202.250016 440.749984 220 463L230 475L227 491C225.250016 498.5 224 505.124992 224 512C224 565.375008 266.624992 608 320 608L352 608L352 640C352 675.749984 380.250016 704 416 704zM608 704C643.750016 704 672 675.749984 672 640L672 608L704 608C757.375008 608 800 565.375008 800 512C800 505.124992 798.750016 498.5 797 491L794 475L804 463C821.750016 440.749984 832 414 832 384C832 345.624992 815.624992 311.375008 789 288C767.124992 307.375008 739.250016 320 708 320C677.750016 320 650.5 309.2499840000001 629 291L670 242C680.375008 250.7499840000001 693.124992 256 708 256C738.875008 256 763.5 232.875008 767 203C764.375008 160.875008 730.750016 128 688 128C685.124992 128 681.624992 128.124992 676 129L645 134L639 103C635 80.5 615.875008 64 592 64C565.124992 64 544 85.124992 544 112L544 449C570.875008 428.5 603.750016 416 640 416L640 480C586.624992 480 544 522.624992 544 576L544 640C544 675.749984 572.250016 704 608 704z" />
    <glyph glyph-name="bread-slice"
      unicode="&#xF7EC;"
      horiz-adv-x="1024" d="M512 768C282.304 768 128 626.2284992 128 493.812512C128 447.540512 152.8 409.859488 192 393.187488L192 128C192 57.408 249.408 0 320 0L704 0C774.592 0 832 57.408 832 128L832 393.187488C871.2 409.859488 896 447.540512 896 493.812512C896 626.2284992 741.696 768 512 768zM512 704C718.016 704 832 579.7324992 832 493.812512C832 469.236512 818.136 452.398016 795 448.750016L768 444.437504L768 128C768 92.704 739.296 64 704 64L320 64C284.704 64 256 92.704 256 128L256 444.437504L229 448.687488C205.864 452.367488 192 469.236512 192 493.812512C192 579.7324992 305.984 704 512 704z" />
    <glyph glyph-name="briefcase"
      unicode="&#xF0B1;"
      horiz-adv-x="1024" d="M512 800C452.375008 800 403.250016 759.124992 389 704L96 704L96 64L928 64L928 704L635 704C620.750016 759.124992 571.624992 800 512 800zM512 736C537.875008 736 557.750016 723.624992 568 704L456 704C466.250016 723.624992 486.124992 736 512 736zM160 640L864 640L864 352L160 352zM512 448C494.375008 448 480 433.624992 480 416C480 398.375008 494.375008 384 512 384C529.624992 384 544 398.375008 544 416C544 433.624992 529.624992 448 512 448zM160 288L864 288L864 128L160 128z" />
    <glyph glyph-name="medical-briefcase"
      unicode="&#xF469;"
      horiz-adv-x="1024" d="M448 736C413 736 384 707 384 672L384 640L192 640C139.375008 640 96 596.624992 96 544L96 64L928 64L928 544C928 596.624992 884.624992 640 832 640L640 640L640 672C640 707 611 736 576 736zM448 672L576 672L576 640L448 640zM192 576L832 576C850.124992 576 864 562.124992 864 544L864 128L160 128L160 544C160 562.124992 173.875008 576 192 576zM480 480L480 384L384 384L384 320L480 320L480 224L544 224L544 320L640 320L640 384L544 384L544 480z" />
    <glyph glyph-name="broadcast-tower"
      unicode="&#xF519;"
      horiz-adv-x="1024" d="M230 762C92.5 628.124992 93 406 230 269L275 314C162.375008 426.624992 162.875008 606.749984 275 716zM794 759L749 713C861.750016 600.249984 861.750016 423.749984 749 311L794 265C930.750016 401.749984 930.750016 622.249984 794 759zM317 666C234.250016 583.249984 234.250016 447.749984 317 365L362 410C304 468 304 563 362 621zM707 663L662 617C720 559 720 465 662 407L707 361C789.750016 443.749984 789.750016 580.249984 707 663zM512 576C476.624992 576 448 547.375008 448 512C448 492 457.624992 474.749984 472 463L330 64L288 64L288 0L416 0L416 64L397 64L512 385L627 64L608 64L608 0L736 0L736 64L694 64L552 463C566.375008 474.749984 576 492 576 512C576 547.375008 547.375008 576 512 576z" />
    <glyph glyph-name="broom"
      unicode="&#xF51A;"
      horiz-adv-x="1024" d="M905 823L585 503L544 544L544 545L543 546C522.5 564.249984 495.750016 573 470 573C444.250016 573 419.375008 563.375008 400 544L395 540L379 524L368 515L76 288L48 265L393 -80L416 -52L642 238L643 237L675 269L676 269L677 270C713.5 311.124992 713.750016 374.2499840000001 675 413L631 457L951 777zM470 509C479.875008 509.249984 490.750016 505.875008 499 499C499.375008 498.749984 499.624992 498.249984 500 498L630 368C642 356 643.124992 330.5 630 314C629.5 313.375008 629.5 312.624992 629 312L619 303L434 488L445 499C451.124992 505.124992 460.124992 508.749984 470 509zM385 447L575 257L387 17L341 63L410 135L364 179L296 108L254 150L378 275L333 320L208 196L145 259z" />
    <glyph glyph-name="brush"
      unicode="&#xF55D;"
      horiz-adv-x="1024" d="M608 831L585 809L407 630L384 608L352 576L279 502L261 484L275 462C275 462 294.5 432 310 399C317.750016 382.5 324.750016 365 327 353C328.124992 347 328.250016 343.375008 328 342C324.5 339.2499840000001 282.375008 305.875008 232 265C179.5 222.5 123.750016 177.7499840000001 101 155C51.250016 105.249984 51.250016 23.749984 101 -26C150.5 -75.5 231.250016 -75.124992 281 -26L282 -26C304.875008 -3.124992 350.750016 51.749984 393 104C434.250016 155 469 198.375008 471 201C470.875008 200.875008 472.375008 203 484 201C495.624992 199 512.124992 193 528 185C559.750016 169.124992 589 148 589 148L611 132L630 151L704 224L736 256L758 279L937 457L959 480L937 503L631 809zM650 664C656.124992 663.5 660.875008 661.124992 665 657C681.375008 640.5 657.5 576.375008 646 549C634.5 521.5 638.124992 500 653 485C678.375008 459.375008 745.5 519.624992 774 491C802.375008 462.375008 750.750016 401.5 769 383C769.375008 382.624992 769.624992 382.375008 770 382L713 325L453 585L497 629C497.624992 628.249984 498.250016 627.749984 499 627C520.750016 605.124992 565.375008 626 584 638C606 652.124992 631.750016 665.5 650 664zM407 539L667 279L658 270L603 214C590.624992 222.5 582 229.5 557 242C537.875008 251.5 517.124992 260.2499840000001 495 264C472.875008 267.7499840000001 444.875008 266.875008 425 247L424 245L423 244C423 244 385.250016 196.124992 343 144C300.750016 91.875008 251.750016 33.749984 237 19C211.750016 -6.250016 172.250016 -6.250016 147 19C121.750016 44.249984 121.750016 83.749984 147 109C161.750016 123.7499840000001 219.875008 172.7499840000001 272 215C324.124992 257.2499840000001 372 295 372 295L373 296L375 297C395.250016 317.124992 394 343.875008 390 365C386 386.124992 377 406.749984 368 426C355.875008 452 348.750016 461.5 341 474L398 530zM200 107C180.624992 107 165 91.375008 165 72C165 52.624992 180.624992 37 200 37C219.375008 37 235 52.624992 235 72C235 91.375008 219.375008 107 200 107z" />
    <glyph glyph-name="bug"
      unicode="&#xF188;"
      horiz-adv-x="1024" d="M343 791L297 745L359 683C312.250016 647.249984 275.5 594.875008 252 534L174 573L146 515L234 471C228.124992 443 224 414 224 384C224 373.124992 224.250016 362.624992 225 352L128 352L128 288L236 288C243.750016 254.624992 254 222.7499840000001 269 194L173 122L211 70L305 140C356.750016 74.249984 429.375008 32 512 32C594.624992 32 667.250016 74.249984 719 140L813 70L851 122L755 194C770 222.7499840000001 780.250016 254.624992 788 288L896 288L896 352L799 352C799.750016 362.624992 800 373.124992 800 384C800 414 795.875008 443 790 471L878 515L850 573L772 534C748.5 594.875008 711.750016 647.249984 665 683L727 745L681 791L607 717C577.5 729.5 545.5 736 512 736C478.5 736 446.5 729.5 417 717zM512 672C575.250016 672 634.5 637 676 580C639.750016 563.624992 582.375008 544 512 544C441.624992 544 384.250016 563.624992 348 580C389.5 637 448.750016 672 512 672zM317 525C353.875008 507.624992 410.5 487.249984 480 482L480 99C374.375008 119 288 235.875008 288 384C288 435.749984 298.750016 483.624992 317 525zM707 525C725.250016 483.624992 736 435.749984 736 384C736 235.875008 649.624992 119 544 99L544 482C613.5 487.249984 670.124992 507.624992 707 525z" />
    <glyph glyph-name="building"
      unicode="&#xF1AD;"
      horiz-adv-x="1024" d="M128 800L128 -32L480 -32L480 96L544 96L544 -32L896 -32L896 800zM192 736L832 736L832 32L608 32L608 160L416 160L416 32L192 32zM256 672L256 608L384 608L384 672zM448 672L448 608L576 608L576 672zM640 672L640 608L768 608L768 672zM256 544L256 480L384 480L384 544zM448 544L448 480L576 480L576 544zM640 544L640 480L768 480L768 544zM256 416L256 352L384 352L384 416zM448 416L448 352L576 352L576 416zM640 416L640 352L768 352L768 416zM256 288L256 224L384 224L384 288zM448 288L448 224L576 224L576 288zM640 288L640 224L768 224L768 288zM256 160L256 96L384 96L384 160zM640 160L640 96L768 96L768 160z" />
    <glyph glyph-name="bullhorn"
      unicode="&#xF0A1;"
      horiz-adv-x="1024" d="M896 799L845 762C845 762 781.375008 714.749984 690 668C598.624992 621.249984 479.624992 576 375 576L64 576L64 284L65 279L129 55L136 32L330 32L319 73L267 256L375 256C478.250016 256 597.250016 209.875008 689 163C780.750016 116.124992 845 70 845 70L896 33L896 326C933 339.375008 960 374.624992 960 416C960 457.375008 933 492.624992 896 506zM832 680L832 153C805.5 170.875008 784.5 187.124992 718 221C624 269 502.624992 317.624992 384 320L384 512C503.750016 514.375008 625.250016 564 719 612C785.375008 646 805.750016 662.124992 832 680zM128 512L320 512L320 320L128 320zM139 256L200 256L245 96L184 96z" />
    <glyph glyph-name="bullseye"
      unicode="&#xF140;"
      horiz-adv-x="1024" d="M512 800C282.5 800 96 613.5 96 384C96 154.5 282.5 -32 512 -32C741.5 -32 928 154.5 928 384C928 613.5 741.5 800 512 800zM512 768C724.250016 768 896 596.249984 896 384C896 171.7499840000001 724.250016 0 512 0C299.750016 0 128 171.7499840000001 128 384C128 596.249984 299.750016 768 512 768zM512 704C335.624992 704 192 560.375008 192 384C192 207.624992 335.624992 64 512 64C688.375008 64 832 207.624992 832 384C832 560.375008 688.375008 704 512 704zM512 640C653.750016 640 768 525.749984 768 384C768 242.2499840000001 653.750016 128 512 128C370.250016 128 256 242.2499840000001 256 384C256 525.749984 370.250016 640 512 640zM512 576C406.375008 576 320 489.624992 320 384C320 278.375008 406.375008 192 512 192C617.624992 192 704 278.375008 704 384C704 489.624992 617.624992 576 512 576zM512 512C583.124992 512 640 455.124992 640 384C640 312.875008 583.124992 256 512 256C440.875008 256 384 312.875008 384 384C384 455.124992 440.875008 512 512 512zM512 448C476.624992 448 448 419.375008 448 384C448 348.624992 476.624992 320 512 320C547.375008 320 576 348.624992 576 384C576 419.375008 547.375008 448 512 448z" />
    <glyph glyph-name="burn"
      unicode="&#xF46A;"
      horiz-adv-x="1024" d="M513 785L492 767C492 767 417.124992 705.875008 343 617C268.875008 528.124992 192 410.875008 192 288C192 199.5 228.250016 125.7499840000001 287 76C342.124992 29.375008 415.875008 4.124992 496 1C501.375008 0.749984 506.624992 0 512 0C517.375008 0 522.624992 0.749984 528 1C608.124992 4.124992 681.875008 29.375008 737 76C795.750016 125.7499840000001 832 199.5 832 288C832 398.624992 754.750016 513.875008 681 606C607.250016 698.124992 534 766 534 766zM511 696C527.624992 680.249984 571.250016 640.749984 631 566C701.250016 478.124992 768 366.124992 768 288C768 216.5 740.250016 162.2499840000001 695 124C684 114.7499840000001 672 106.249984 659 99C666.875008 117.875008 672 138.375008 672 160C672 360 565 482 565 482L507 547L509 460C509 460 509.124992 419.249984 504 380C501.375008 360.375008 497.750016 340.875008 493 330C491.624992 326.875008 491 326.5 490 325C486.624992 326.2499840000001 476.5 331.2499840000001 467 341C456.250016 352 449 363 449 363L418 411L394 359C394 359 352 273.375008 352 160C352 138.375008 357.124992 117.875008 365 99C352 106.249984 340 114.7499840000001 329 124C283.750016 162.2499840000001 256 216.5 256 288C256 382.624992 323.124992 492.124992 393 576C452.250016 647 494.250016 681.749984 511 696zM565 359C586.875008 311.5 608 245.124992 608 160C608 107 565 64 512 64C459 64 416 107 416 160C416 211 425.875008 254.124992 435 285C449.375008 272.124992 467 259 493 259C508.250016 259 522.750016 266 532 275C541.250016 284 546.5 294.624992 551 305C558.250016 321.875008 562 340.624992 565 359z" />
    </font>
</defs>
</svg>
